<?xml version="1.0" encoding="utf-8" ?>
<!DOCTYPE svg PUBLIC "-//W3C//DTD SVG 1.1//EN" "http://www.w3.org/Graphics/SVG/1.1/DTD/svg11.dtd">
<svg xmlns="http://www.w3.org/2000/svg"><defs><font id="AnticSlab" horiz-adv-x="476"><font-face font-family="Antic Slab" units-per-em="1000" panose-1="0 0 0 0 0 0 0 0 0 0" ascent="940" descent="-250" alphabetic="0"/><glyph unicode="" glyph-name="space" horiz-adv-x="299"/><glyph unicode="!" glyph-name="exclam" horiz-adv-x="282" d="M172 129H112V695L172 700V129ZM106 21T106 35T116 59T141 70T165 60T176 35T166 11T141 0T117 10Z"/><glyph unicode="&quot;" glyph-name="quotedbl" horiz-adv-x="358" d="M80 600Q79 606 79 611T78 625T77 643T76 664Q74 699 74 718L128 719Q118 662 118 603L80 600ZM200 600Q199 606 199 611T198 625T197 643T196 664Q194 699 194 718L248 719Q238 662 238 603L200 600Z"/><glyph unicode="#" glyph-name="numbersign" horiz-adv-x="600" d="M63 458L69 516H191L220 679H280L251 516H393L422 679H482L453 516H560L554 458H443L413 287H520L514 229H403L371 44H311L343 229H201L169 44H109L141 229H23L29 287H151L181 458H63ZM241 458L211 287H353L383 458H241Z"/><glyph unicode="$" glyph-name="dollar" horiz-adv-x="583" d="M306 547H301V334Q417 301 450 267Q489 226 489 157T436 46T301 -3V-100H266V-4Q126 2 65 52L86 97Q112 74 163 62T264 49H266V288Q152 320 122 349Q84 385 84 446T133 550T266 599V700H301V600Q362 598 430 586L452 582L440 531Q344 547 306 547ZM429 161Q429 209 396 234T301 278V51Q429 65 429 161ZM210 537T180 512T149 446T179 383T266 344V544Q210 537 180 512Z"/><glyph unicode="%" glyph-name="percent" horiz-adv-x="653" d="M498 500H558L180 0H120L498 500ZM80 400Q80 449 115 484T200 520Q320 520 320 400Q320 350 285 315T200 280Q80 280 80 400ZM166 482T143 458T120 397T142 339T198 318T256 342T280 403T258 461T201 482ZM370 115Q370 164 405 199T490 235Q610 235 610 115Q610 65 575 30T490 -5Q370 -5 370 115ZM456 197T433 173T410 112T432 54T488 33T546 57T570 118T548 176T491 197Z"/><glyph unicode="&amp;" glyph-name="ampersand" horiz-adv-x="861" d="M338 -4Q71 -4 71 229Q71 330 120 387T254 461Q199 547 199 600T243 701T376 749Q424 749 454 738T502 716T528 699Q559 674 560 674L524 634Q451 694 380 694Q311 694 286 654Q264 622 264 593Q264 525 363 408T600 163Q646 215 672 288Q672 300 660 302H598Q597 308 597 352L807 353Q807 352 808 328V303H738Q712 202 644 123Q659 110 726 52H808L807 0L698 -1Q669 23 602 83Q498 -4 338 -4ZM136 148T186 100T353 51T559 122Q382 285 288 411Q216 403 176 357T136 230Z"/><glyph unicode="'" glyph-name="quotesingle" horiz-adv-x="200" d="M64 587L65 661Q65 702 64 715L118 718Q118 699 117 677T116 638T114 607T112 575L64 573V587Z"/><glyph unicode="(" glyph-name="parenleft" horiz-adv-x="346" d="M145 487T137 419T129 258T142 83T171 -44T210 -121T244 -162Q254 -170 267 -178L235 -200Q226 -196 222 -195T198 -178T163 -145T129 -89T96 -5Q64 111 64 270Q64 445 98 554Q130 656 168 697Q207 740 226 746L235 750L267 721Q258 718 242 702T213 668T184 613T157 532Z"/><glyph unicode=")" glyph-name="parenright" horiz-adv-x="400" d="M248 506T257 432T267 272T258 113T236 -5T203 -88T168 -144T134 -178T109 -194T96 -200L64 -178Q0 0 66 -177Q144 -132 179 27Q202 130 202 255T188 467T154 599T113 674T78 712L64 721L96 750Q108 747 127 732T163 697T199 640T233 554Z"/><glyph unicode="*" glyph-name="asterisk" horiz-adv-x="556" d="M274 736L322 735Q322 688 314 613L427 656L443 609Q397 593 325 578L400 483L361 454Q332 492 293 559Q239 480 225 457L186 485Q193 494 264 581L148 613L162 660Q220 640 278 613Q275 726 274 736Z"/><glyph unicode="+" glyph-name="plus" horiz-adv-x="799" d="M146 290H366V500H426V290H646V232H426V0H366V232H146V290Z"/><glyph unicode="," glyph-name="comma" horiz-adv-x="110" d="M33 65Q33 65 87 64Q87 9 59 -103L13 -101L18 -67Q33 24 33 43T33 65Z"/><glyph unicode="-" glyph-name="hyphen" horiz-adv-x="600" d="M146 290H448V232H146V290Z"/><glyph unicode="." glyph-name="period" horiz-adv-x="143" d="M34 29Q34 48 43 59T69 70Q104 70 104 29Q104 12 94 2T69 -8Q34 -8 34 29Z"/><glyph unicode="/" glyph-name="slash" horiz-adv-x="600" d="M430 749H490L172 -200H112L430 749Z"/><glyph unicode="0" glyph-name="zero" horiz-adv-x="700" d="M269 633T211 555T153 336T209 123T348 51T489 129T547 347T491 559T352 633ZM235 -4T160 81T85 334T162 594T351 688T539 601T615 348T538 90T348 -4Z"/><glyph unicode="1" glyph-name="one" horiz-adv-x="488" d="M78 577Q78 577 77 626L237 662H300V0H237V613L78 577Z"/><glyph unicode="2" glyph-name="two" horiz-adv-x="572" d="M257 666T296 666T366 657T426 629Q487 588 487 487Q487 414 448 350Q428 315 409 288T355 225T299 169T236 110T177 55H460L475 180L524 175L509 0H101L90 55Q260 220 295 258Q420 393 420 489Q420 528 398 564Q385 585 358 597T295 610T220 599T158 577L135 566L110 613Q151 635 204 650Z"/><glyph unicode="3" glyph-name="three" horiz-adv-x="560" d="M190 324V369Q245 369 273 368Q328 378 368 414Q385 428 397 454T409 517T383 581T297 610Q261 610 221 599T158 577L135 566L118 616Q149 634 203 650T302 666Q379 666 428 629T477 522Q477 409 358 358Q481 328 481 201Q481 97 410 47T212 -3Q146 -3 87 13L103 65Q143 52 206 52Q306 52 359 88T413 198Q413 262 376 287Q356 300 339 308T290 320Q250 324 190 324Z"/><glyph unicode="4" glyph-name="four" horiz-adv-x="601" d="M402 140H102L85 195L402 662H470V195H516L517 140H470V49L538 45Q538 44 538 22L537 0L337 -1Q337 38 338 43L390 50Q400 51 402 63V140ZM402 195V562L152 195H402Z"/><glyph unicode="5" glyph-name="five" horiz-adv-x="475" d="M421 201Q421 97 350 47T152 -3Q86 -3 27 13L43 65Q83 52 146 52Q246 52 299 88T353 198Q353 262 314 287Q294 300 276 308T224 320Q183 324 120 324H109L129 662H415L428 518L378 510L366 607H192L178 369Q316 369 370 326Q391 308 406 277T421 201Z"/><glyph unicode="6" glyph-name="six" horiz-adv-x="601" d="M393 371T437 327T481 195T422 52T271 -4T125 42T70 187Q70 245 89 302T136 402T204 488T277 557T350 610Q402 644 437 662L464 614Q463 613 445 603T408 582T360 549T304 506Q244 455 200 389Q284 387 321 382Q393 371 437 327ZM170 334Q138 264 138 190T177 83T274 51T372 92T413 194T384 287T316 326T170 334Z"/><glyph unicode="7" glyph-name="seven" horiz-adv-x="564" d="M157 0L409 607H139L127 510L78 518L90 662H461L475 607L223 0H157Z"/><glyph unicode="8" glyph-name="eight" horiz-adv-x="613" d="M532 173Q532 132 515 99T475 46T409 11T308 -4T208 10T143 45T106 92Q86 133 86 173Q86 248 114 293T199 382Q124 423 124 518Q124 597 176 631T308 666Q494 666 494 518Q494 428 417 367Q471 344 501 300T532 173ZM151 173Q151 138 166 113T199 76T244 58Q278 49 318 49T394 64T443 102Q467 141 467 176T456 239T431 284T390 315T343 335T290 350T239 365Q151 291 151 173ZM417 471Q426 496 426 515T425 545Q407 613 308 613Q270 613 244 602T206 574Q189 546 189 520T197 475T216 444T248 422T284 407T329 395T373 383Q408 418 417 471Z"/><glyph unicode="9" glyph-name="nine" horiz-adv-x="601" d="M158 287T114 331T70 463T129 606T280 662T426 616T481 471Q481 413 462 356T415 256T347 170T274 101T202 48Q149 14 114 -4L86 44Q98 44 153 82T231 139T274 177Q320 223 350 269Q271 269 230 276Q158 287 114 331ZM381 324Q413 393 413 467T374 574T277 607T178 566T138 464T167 371T242 331Q278 324 381 324Z"/><glyph unicode=":" glyph-name="colon" horiz-adv-x="250" d="M79 29Q79 48 88 59T114 70Q149 70 149 29Q149 12 139 2T114 -8Q79 -8 79 29ZM79 432Q79 451 88 462T114 473Q149 473 149 432Q149 415 139 405T114 395Q79 395 79 432Z"/><glyph unicode=";" glyph-name="semicolon" horiz-adv-x="232" d="M79 432Q79 451 88 462T114 473Q149 473 149 432Q149 415 139 405T114 395Q79 395 79 432ZM127 64Q127 26 119 -18Q115 -39 112 -58T106 -90L103 -102H68L70 -90Q73 -77 76 -58T86 -7T92 64H127Z"/><glyph unicode="&lt;" glyph-name="less" horiz-adv-x="569" d="M100 300L452 500L455 448L181 299Q273 251 455 153L452 100L100 300Z"/><glyph unicode="=" glyph-name="equal" horiz-adv-x="739" d="M146 383H600V325H146V383ZM146 161H600V103H146V161Z"/><glyph unicode="&gt;" glyph-name="greater" horiz-adv-x="569" d="M103 100L100 153Q282 251 373 299L100 448L103 500L455 300L103 100Z"/><glyph unicode="?" glyph-name="question" horiz-adv-x="500" d="M237 700Q316 700 364 658T414 552Q414 509 385 469T282 355Q185 260 185 128H140Q140 278 222 364T327 483T349 554T318 620Q286 648 231 648Q198 648 161 637T102 612L81 599L58 638Q66 645 81 655T143 683T237 700ZM127 6Q127 26 137 37T165 49Q203 49 203 6Q203 -12 193 -23T165 -34Q127 -34 127 6Z"/><glyph unicode="@" glyph-name="at" horiz-adv-x="1070" d="M758 16Q809 16 858 79T908 252T878 440T796 566Q692 657 531 657T260 535T150 233Q150 131 179 54T262 -68Q365 -157 530 -157Q604 -157 675 -125L704 -175Q633 -215 523 -215Q288 -215 170 -61Q85 50 85 247T214 580T536 715Q721 715 844 606Q904 553 938 466T973 284T952 130T896 34Q828 -39 750 -39Q711 -39 685 -19T655 38Q567 -4 480 -4Q347 -4 339 101Q338 108 338 115Q338 199 439 227Q495 241 655 259V336Q655 445 541 445Q481 444 405 420L401 334L352 329V445L350 450L360 454Q438 488 479 495T539 502T575 502T621 493T669 471T705 427T720 358V47Q723 16 758 16ZM498 42Q574 42 655 76V219Q505 214 461 199Q427 190 413 167T399 129T399 110Q402 74 430 58T498 42Z"/><glyph unicode="A" glyph-name="A" horiz-adv-x="711" d="M488 0V55H549L503 185H195L150 55H222V0H20V55H86L319 700H380L621 55H690V0H488ZM346 624L212 235H485L346 624Z"/><glyph unicode="B" glyph-name="B" horiz-adv-x="547" d="M50 645V700H265Q481 700 481 531Q481 460 427 378Q522 339 522 207Q522 89 463 45T280 0H50V55H115V645H50ZM300 343H183V55H275Q321 55 350 60T405 80Q454 107 454 203Q454 279 416 311T300 343ZM305 398Q342 398 369 394Q413 463 413 525Q413 645 260 645H183V398H305Z"/><glyph unicode="C" glyph-name="C" horiz-adv-x="562" d="M353 646Q240 646 174 562T108 320Q108 252 122 201T156 122T207 78Q255 51 319 51Q418 51 517 73L529 21Q512 15 439 6T319 -4T239 2T167 30T103 85T58 180T40 320Q40 497 121 596Q206 700 353 700Q398 700 450 692T525 675L537 531L488 524L474 632Q410 646 353 646Z"/><glyph unicode="D" glyph-name="D" horiz-adv-x="629" d="M50 645V700H291Q426 700 507 622T589 366Q589 191 532 104Q482 28 376 8Q329 0 266 0H50V55H111V645H50ZM286 645H179V55H261Q394 55 444 104Q497 155 512 242Q521 293 521 361Q521 511 456 578T286 645Z"/><glyph unicode="E" glyph-name="E" horiz-adv-x="541" d="M50 645V700H475L474 694L487 556L437 548L425 645H179V377H397V440H452V268H397V322H179V55H452L467 180L516 175L501 0H50V55H111V645H50Z"/><glyph unicode="F" glyph-name="F" horiz-adv-x="512" d="M179 645V377H397V440H452V268H397V322H179V55H252V0H50V55H111V645H50V700H475L474 694L487 556L437 548L425 645H179Z"/><glyph unicode="G" glyph-name="G" horiz-adv-x="614" d="M387 264V319H568V264H529V21Q512 15 439 6T319 -4T239 2T167 30T103 85T58 180T40 320Q40 497 121 596Q206 700 353 700Q398 700 450 692T525 675L537 531L488 524L474 632Q410 646 353 646Q240 646 174 562T108 320Q108 252 122 201T156 122T207 78Q255 51 320 51T470 64L473 264H387Z"/><glyph unicode="H" glyph-name="H" horiz-adv-x="685" d="M441 0V55H509V317H168V55H242V0H40V55H105V645H40V700H242V645H168V377H509V645H441V700H633V645H572V55H643V0H441Z"/><glyph unicode="I" glyph-name="I" horiz-adv-x="302" d="M50 645V700H252V645H184V55H252V0H50V55H116V645H50Z"/><glyph unicode="J" glyph-name="J" horiz-adv-x="235" d="M78 645H3V700H205V645H146V0Q149 -120 2 -248L-30 -209Q12 -169 45 -113T78 0V645Z"/><glyph unicode="K" glyph-name="K" horiz-adv-x="602" d="M330 645V700H524V645H460L257 371L506 55H582V0H550L473 -1L183 366L384 645H330ZM183 645V55H252V0H50V55H115V645H50V700H252V645H183Z"/><glyph unicode="L" glyph-name="L" horiz-adv-x="517" d="M50 645V700H252V645H180V55H434L449 180L498 175L487 55H488L487 53L483 0L473 1V0H50V55H112V645H50Z"/><glyph unicode="M" glyph-name="M" horiz-adv-x="877" d="M626 0V55H690V584L462 131H394L166 584V55H248V0H46V55H103V645H46V700H171L428 188L685 700H817V645H753V55H828V0H626Z"/><glyph unicode="N" glyph-name="N" horiz-adv-x="749" d="M46 645V700H183L581 90L577 645H512V700H703V645H640V0H567L168 610L172 55H248V0H46V55H110V645H46Z"/><glyph unicode="O" glyph-name="O" horiz-adv-x="670" d="M40 348Q40 511 124 607T335 704Q630 704 630 348Q630 186 546 91T335 -4Q40 -4 40 348ZM108 350Q108 56 335 56Q433 56 497 134T562 350Q562 644 335 644Q237 644 173 566T108 350Z"/><glyph unicode="P" glyph-name="P" horiz-adv-x="542" d="M52 645V700H260Q383 700 442 658T502 500T441 328T260 272H183V55H254V0H52V55H115V645H52ZM255 645H183V327H255Q345 327 389 366T434 495T390 615T255 645Z"/><glyph unicode="Q" glyph-name="Q" horiz-adv-x="670" d="M40 348Q40 511 124 607T335 704Q630 704 630 348Q630 195 555 101T362 -3Q390 -102 520 -194L461 -200Q411 -166 363 -113T298 -2Q40 18 40 348ZM108 350Q108 56 335 56Q433 56 497 134T562 350Q562 644 335 644Q237 644 173 566T108 350Z"/><glyph unicode="R" glyph-name="R" horiz-adv-x="632" d="M50 645V700H291Q394 700 450 655T506 521Q506 462 465 399T383 312L541 55H612V0H502L324 287H179V55H252V0H50V55H111V645H50ZM286 645H179V342H344Q438 428 438 515Q438 579 399 612T286 645Z"/><glyph unicode="S" glyph-name="S" horiz-adv-x="527" d="M238 59Q349 59 403 115Q434 147 434 191T413 263T357 307T282 334T199 359T123 390T68 441T46 520Q46 600 106 651T265 702T451 682V681H454L465 556L416 548L405 632Q349 642 282 642T164 613T114 529T154 447T251 405T365 372T462 310T502 194Q502 97 430 48T251 -1Q116 -1 25 60L26 166L75 171L77 95Q153 59 238 59Z"/><glyph unicode="T" glyph-name="T" horiz-adv-x="521" d="M162 0V55H227V640H80L69 548L20 556L32 700H488L501 556L451 548L439 640H290V55H363V0H162Z"/><glyph unicode="U" glyph-name="U" horiz-adv-x="728" d="M50 645V700H252V645H183V301Q183 146 244 95Q273 70 303 61T373 51Q454 51 505 111T557 301V645H491V700H683V645H620V300Q620 143 551 70T373 -4Q318 -4 277 7T196 50Q115 113 115 300V645H50Z"/><glyph unicode="V" glyph-name="V" horiz-adv-x="709" d="M493 645V700H689V645H617L389 0H323L86 645H20V700H222V645H153L361 76L553 645H493Z"/><glyph unicode="W" glyph-name="W" horiz-adv-x="969" d="M20 645V700H222V645H147L286 101L451 700H507L663 99L813 645H753V700H949V645H877L689 0H628L477 596L312 0H250L84 645H20Z"/><glyph unicode="X" glyph-name="X" horiz-adv-x="637" d="M401 0V55H470L308 322L155 55H226V0H20V55H87L277 373L105 645H40V700H242V645H182L321 414L453 645H393V700H589V645H522L352 363L546 55H617V0H401Z"/><glyph unicode="Y" glyph-name="Y" horiz-adv-x="682" d="M20 645V700H222V645H159L347 292L526 645H465V700H661V645H594L379 236V55H451V0H251V55H316V236L88 645H20Z"/><glyph unicode="Z" glyph-name="Z" horiz-adv-x="577" d="M35 0L25 55L418 645H100L88 548L38 556L51 700H486L496 645L103 55H488L503 180L552 175L537 0H35Z"/><glyph unicode="[" glyph-name="bracketleft" horiz-adv-x="430" d="M138 -201V-200H107V750H172V749H300V691H172V-143H300V-201H138Z"/><glyph unicode="\" glyph-name="backslash" horiz-adv-x="600" d="M495 -200H425L107 749H177L495 -200Z"/><glyph unicode="]" glyph-name="bracketright" horiz-adv-x="430" d="M269 -200V-201H107V-143H235V691H107V749H235V750H300V-200H269Z"/><glyph unicode="^" glyph-name="asciicircum" horiz-adv-x="560" d="M406 305L374 300Q366 311 324 362T270 429Q260 416 236 386Q180 318 168 300L136 305Q147 319 203 384T270 463Q281 449 338 384T406 305Z"/><glyph unicode="_" glyph-name="underscore" horiz-adv-x="500" d="M79 58H433V0H79V58Z"/><glyph unicode="`" glyph-name="grave" horiz-adv-x="299" d="M235 603L189 595L71 743L131 750L235 603Z"/><glyph unicode="a" glyph-name="a" horiz-adv-x="539" d="M182 -4Q49 -4 41 101Q40 108 40 115Q40 199 141 227Q197 241 357 259V336Q357 445 243 445Q161 444 69 407L52 450L62 454Q140 488 181 495T241 502T277 502T323 493T371 471T407 427T422 358V50H499V0H367L357 38Q267 -4 182 -4ZM200 42Q276 42 357 76V219Q207 214 163 199Q129 190 115 167T101 129T101 110Q104 74 132 58T200 42Z"/><glyph unicode="b" glyph-name="b" horiz-adv-x="560" d="M50 700V750H182V460Q242 509 316 509Q384 509 444 467Q476 444 495 395T515 276Q515 143 449 76Q374 0 259 0Q216 0 174 7T117 23V700H50ZM182 425V56Q211 49 245 49Q344 49 397 107T450 271Q450 394 378 432Q343 451 294 451T182 425Z"/><glyph unicode="c" glyph-name="c" horiz-adv-x="478" d="M300 446Q215 446 163 390T110 231Q110 54 275 54Q339 54 382 64T429 78L443 31Q420 16 367 6T271 -4T193 5T123 37T66 109T45 230Q45 361 112 428Q187 505 301 505Q337 505 377 496T440 466V335L391 328L386 433Q345 446 300 446Z"/><glyph unicode="d" glyph-name="d" horiz-adv-x="579" d="M123 37Q88 60 67 109T45 230Q45 361 112 430Q183 504 274 504Q330 504 388 475V700H321V750H453V50H530V0H398L390 32Q333 -4 259 -4T123 37ZM388 81V432Q342 446 301 446Q215 446 163 390T110 231Q110 177 125 140T167 84Q212 54 272 54T388 81Z"/><glyph unicode="e" glyph-name="e" horiz-adv-x="506" d="M108 224Q108 135 159 95T278 54Q322 54 368 62T430 78L443 31Q420 16 368 6T272 -4T194 5T123 37T66 109T45 229Q45 361 113 431Q184 504 278 504T421 452T471 306Q471 286 468 263H111Q108 242 108 224ZM411 313Q411 375 374 408T288 442Q221 442 177 402T118 302H411Q411 308 411 313Z"/><glyph unicode="f" glyph-name="f" horiz-adv-x="360" d="M102 690T147 720T242 751T320 740L317 693Q293 696 276 696T242 693T207 680Q167 658 167 598V500H288V442H167V50H252V0H40V50H102V442H51L59 490L102 499V621Q102 690 147 720Z"/><glyph unicode="g" glyph-name="g" horiz-adv-x="561" d="M41 -104Q41 -14 148 54Q106 84 106 125T142 193Q68 229 68 339Q68 416 126 460T274 504Q303 504 333 499L521 504L519 466H410Q465 425 465 343T410 216T268 171Q212 171 175 181Q156 163 156 135T190 92T279 69T359 56T417 38T470 10Q517 -29 517 -94Q517 -139 496 -171T438 -220Q370 -250 276 -250Q151 -250 96 -207T41 -104ZM106 -97Q106 -138 146 -165T268 -192Q452 -192 452 -94Q452 -45 408 -24Q370 -5 324 4Q226 18 183 35Q106 -28 106 -97ZM209 451T171 423T133 338T162 253T257 224T359 256T397 345Q397 451 271 451Q209 451 171 423Z"/><glyph unicode="h" glyph-name="h" horiz-adv-x="628" d="M387 0V50H448V342Q448 377 434 399T396 428Q358 441 334 439Q269 437 191 393V50H267V0H65V50H126V700H59V750H191V438Q322 528 428 494Q452 487 469 474T500 433T513 368V50H589V0H387Z"/><glyph unicode="i" glyph-name="i" horiz-adv-x="316" d="M59 450V500H191V50H266V0H64V50H126V450H59ZM137 634T126 646T115 679T126 712T158 725T190 713T203 679T190 646T157 634Z"/><glyph unicode="j" glyph-name="j" horiz-adv-x="285" d="M159 450H92V500H224V0Q224 -3 224 -5Q224 -45 210 -84T174 -152Q131 -210 95 -237L80 -248L50 -209Q160 -104 159 0V450ZM170 634T159 646T147 679T159 712T191 725T223 713T235 679T223 646T190 634Z"/><glyph unicode="k" glyph-name="k" horiz-adv-x="582" d="M309 450V500H519V450H425L257 266L447 50H542V0H415L192 266V50H267V0H65V50H127V700H60V750H192V266L350 450H309Z"/><glyph unicode="l" glyph-name="l" horiz-adv-x="307" d="M60 700V750H192V50H267V0H65V50H127V700H60Z"/><glyph unicode="m" glyph-name="m" horiz-adv-x="909" d="M355 0V50H417V344Q417 441 309 441Q252 440 181 403V50H257V0H55V50H116V450H50V500H182V450H181V447Q264 499 333 503Q428 503 462 449Q549 499 626 503Q696 503 732 474Q749 461 761 434T774 368V50H848V0H646V50H709V343Q709 441 602 441Q544 440 479 405Q482 388 482 368V50H557V0H355Z"/><glyph unicode="n" glyph-name="n" horiz-adv-x="630" d="M50 450V500H182V444Q264 500 339 503Q412 503 450 474Q467 461 480 434T494 368V50H571V0H369V50H429V343Q429 440 315 440Q253 438 182 399V50H257V0H55V50H117V450H50Z"/><glyph unicode="o" glyph-name="o" horiz-adv-x="565" d="M174 -4T110 56T45 239T113 433T286 504T455 444T520 261T452 67T279 -4ZM210 446T160 392T110 246T157 104T280 54T405 107T455 253T407 396T285 446Z"/><glyph unicode="p" glyph-name="p" horiz-adv-x="570" d="M60 450V500H192V463Q255 509 326 509Q394 509 454 467Q486 444 505 395T525 276Q525 143 459 76Q384 0 265 0Q230 0 192 5V-200H277V-250H65V-200H127V450H60ZM192 422V56Q221 49 255 49Q354 49 407 107T460 271Q460 394 388 432Q353 451 307 451T192 422Z"/><glyph unicode="q" glyph-name="q" horiz-adv-x="588" d="M326 -250V-200H388V31Q332 -4 258 -4Q185 -4 123 37Q88 60 67 109T45 230Q45 361 112 430Q183 504 274 504Q330 504 388 475V495L453 500V-200H538V-250H326ZM332 54T388 81V432Q342 446 301 446Q215 446 163 390T110 231Q110 177 125 140T167 84Q212 54 272 54Z"/><glyph unicode="r" glyph-name="r" horiz-adv-x="444" d="M181 50H264V0H54V50H116V450H49V500H181V379Q260 495 336 497Q342 497 348 497L404 490L378 430Q359 439 329 439Q257 438 181 335V50Z"/><glyph unicode="s" glyph-name="s" horiz-adv-x="421" d="M93 65Q135 52 160 52T194 53Q246 54 281 75T316 134T289 193T222 225T144 249T78 290T50 363Q50 427 99 465T223 504Q279 504 336 484L354 477V362L305 355L301 440Q261 446 234 446Q179 446 147 425T115 370T142 317T209 287T287 263T353 219T381 139Q381 73 332 35T191 -4T40 39V154L88 161L93 65Z"/><glyph unicode="t" glyph-name="t" horiz-adv-x="350" d="M268 49L307 51L310 11Q309 11 296 8Q266 1 229 1Q195 3 167 12T115 52T91 131V442H40L48 490L92 499L100 595L156 600V500H277V442H156V148Q156 49 268 49Z"/><glyph unicode="u" glyph-name="u" horiz-adv-x="649" d="M448 58Q357 -3 276 -3Q242 -3 196 14Q166 25 148 55T130 132V450H60V500H195V152Q195 117 210 95T248 65Q286 53 309 55Q369 56 448 98V450H378V500H513V50H590V0H458L448 58Z"/><glyph unicode="v" glyph-name="v" horiz-adv-x="616" d="M391 450V500H575V450H516L335 0H275L108 450H40V500H251V450H181L308 77L447 450H391Z"/><glyph unicode="w" glyph-name="w" horiz-adv-x="901" d="M40 450V500H250V450H183L294 81L425 495L489 500L599 81L728 450H660V500H860V450H802L631 0H571L454 397L319 0H259L109 450H40Z"/><glyph unicode="x" glyph-name="x" horiz-adv-x="582" d="M326 0V50H388L278 220L137 0H40V50H105L247 267L125 450H60V500H269V450H203L299 298L426 499H428V500H523V450H460L329 250L466 50H541V0H326Z"/><glyph unicode="y" glyph-name="y" horiz-adv-x="653" d="M429 450V500H613V450H553L354 0L321 -199H405V-249H194V-199H256L287 0H270L108 450H40V500H251V450H182L314 47L484 450H429Z"/><glyph unicode="z" glyph-name="z" horiz-adv-x="500" d="M58 500H430L439 442L127 58H406L410 154L459 161V7L460 0H49L40 58L356 442H111L107 362L58 355V500Z"/><glyph unicode="{" glyph-name="braceleft" horiz-adv-x="453" d="M61 221V278Q177 278 177 378V613Q177 657 194 687Q229 749 333 749Q343 749 353 748V691Q349 691 345 691Q302 691 270 670T237 591V381Q237 289 180 249Q237 211 237 118V-92Q237 -150 269 -171T345 -192Q349 -192 353 -192V-249Q343 -250 328 -250T291 -247T240 -231T194 -188T177 -114V96Q177 217 68 221H61Z"/><glyph unicode="|" glyph-name="bar" horiz-adv-x="284" d="M112 749H172V-200H112V749Z"/><glyph unicode="}" glyph-name="braceright" horiz-adv-x="453" d="M353 221H346Q237 217 237 96V-114Q237 -158 220 -188Q185 -250 81 -250Q71 -250 61 -249V-192Q65 -192 69 -192Q112 -192 144 -171T177 -92V118Q177 211 234 249Q177 289 177 381V591Q177 648 145 669T69 691Q65 691 61 691V748Q71 749 85 749T122 746T174 730T220 687T237 613V378Q237 278 353 278V221Z"/><glyph unicode="~" glyph-name="asciitilde" horiz-adv-x="588" d="M210 380Q244 380 311 364T405 347T440 356T453 386L488 379Q479 340 462 325T419 309T318 328Q252 343 216 343Q163 343 156 308L122 315Q135 380 210 380Z"/><glyph unicode="&#xA1;" glyph-name="exclamdown" horiz-adv-x="282" d="M170 371V-200L110 -195V371H170ZM104 451T104 465T114 489T139 500T163 490T174 465T164 441T139 430T115 440Z"/><glyph unicode="&#xA2;" glyph-name="cent" horiz-adv-x="479" d="M300 446H289V54Q347 56 385 67T428 82L444 28Q394 1 289 -3V-100H259V-4Q177 -2 118 40Q84 64 65 112T45 230Q45 356 106 422T259 502V600H289V505Q296 505 319 505T381 495T440 466V345L391 338L386 433Q345 446 300 446ZM110 231Q110 63 259 54V442Q190 430 150 375T110 231Z"/><glyph unicode="&#xA3;" glyph-name="sterling" horiz-adv-x="502" d="M101 412Q101 597 258 597Q332 597 379 557L356 515Q323 544 266 544T185 510T160 410T167 313H333V280H175Q178 270 192 223T207 139Q207 73 165 53H426L431 0H85L78 53H85Q110 54 128 75T147 138T135 217T116 280H51V313H110Q101 368 101 412Z"/><glyph unicode="&#xA4;" glyph-name="currency" horiz-adv-x="600" d="M134 324Q100 372 100 446T138 571L90 620L131 661L180 612Q232 650 303 650T425 615L473 663L515 621L466 572Q500 522 500 452T462 330L515 277L474 236L421 289Q368 250 298 250T177 283L131 237L89 279L134 324ZM242 592T201 551T160 447T200 347T299 308T399 349T440 453T400 553T301 592Z"/><glyph unicode="&#xA6;" glyph-name="brokenbar" horiz-adv-x="284" d="M112 200H172V-200H112V200ZM172 400H112V749H172V400Z"/><glyph unicode="&#xA7;" glyph-name="section" horiz-adv-x="500" d="M90 600H155Q157 524 206 491Q229 476 256 464T311 438T360 404Q410 360 410 262H345Q345 340 294 376Q272 392 245 404T191 431T140 464Q90 507 90 600ZM90 361H155Q157 284 206 251Q229 236 256 224T311 197T360 164Q410 119 410 23H345Q345 101 294 137Q272 153 245 165T191 191T140 224Q90 267 90 361Z"/><glyph unicode="&#xA8;" glyph-name="dieresis" horiz-adv-x="500" d="M130 570T120 581T109 611T119 639T147 650T175 640T186 610T175 581T147 570ZM345 570T335 581T325 611T335 639T362 650Q402 650 402 610Q402 591 391 581T363 570Z"/><glyph unicode="&#xA9;" glyph-name="copyright" horiz-adv-x="833" d="M259 -5T172 76T85 303T174 537T396 625T616 544T703 317T614 83T392 -5ZM276 597T196 517T115 307T194 101T393 23T592 103T673 313T594 519T395 597ZM387 477Q325 477 289 431T253 299Q253 152 368 152Q416 152 476 164L483 135Q435 122 364 122Q216 122 216 299Q216 396 260 450Q307 506 385 506Q411 506 440 501T480 492L487 414L460 410L453 469Q417 477 387 477Z"/><glyph unicode="&#xAA;" glyph-name="ordfeminine" horiz-adv-x="300" d="M76 663Q123 682 145 682Q210 682 210 629V518H238V500H190L186 514Q154 499 123 499Q75 499 72 537Q72 540 72 543Q72 572 108 582Q126 587 186 594V621Q186 661 145 661Q110 661 82 647L76 663ZM94 540Q95 515 125 515T186 527V579Q127 576 116 572Q93 565 93 546Q93 543 94 540Z"/><glyph unicode="&#xAB;" glyph-name="guillemotleft" horiz-adv-x="694" d="M344 136V88L75 259L344 430V382L140 259L344 136ZM600 136V88L331 259L600 430V382L396 259L600 136Z"/><glyph unicode="&#xAC;" glyph-name="logicalnot" horiz-adv-x="600" d="M100 290H522V152H462V232H100V290Z"/><glyph unicode="&#xAE;" glyph-name="registered" horiz-adv-x="599" d="M206 289T148 343T90 494T149 651T298 710T445 656T503 504T444 348T295 289ZM219 687T167 636T115 497T166 361T295 312T425 363T478 501T427 637T297 687ZM223 595V613H303Q374 613 374 553Q374 534 360 513T333 484L386 398H410V380H373L314 476H266V398H290V380H223V398H243V595H223ZM301 595H266V494H320Q352 522 352 551Q352 595 301 595Z"/><glyph unicode="&#xAF;" glyph-name="overscore" horiz-adv-x="500" d="M100 648H400V590H100V648Z"/><glyph unicode="&#xB0;" glyph-name="degree" horiz-adv-x="378" d="M145 513T118 538T90 608T118 682T189 710T259 685T287 614T259 541T188 513ZM160 682T140 661T120 609T139 560T187 541T237 561T257 613T238 663T189 682Z"/><glyph unicode="&#xB1;" glyph-name="plusminus" horiz-adv-x="833" d="M146 490H366V700H426V490H646V432H426V200H366V432H146V490ZM146 123H646V65H146V123Z"/><glyph unicode="&#xB2;" glyph-name="twosuperior" horiz-adv-x="236" d="M156 698T146 712T109 727T49 711L39 729Q75 748 108 748Q181 748 181 681Q181 632 118 570Q112 563 90 543T65 519H171L177 566L195 564L189 498H36L32 519Q39 526 55 541T78 563L97 582Q110 595 114 601T128 617T140 634T148 650Q156 665 156 681Z"/><glyph unicode="&#xB3;" glyph-name="threesuperior" horiz-adv-x="300" d="M167 723Q142 723 108 707L102 725Q133 744 165 744T215 730T233 691Q233 650 190 631Q235 620 235 574Q235 499 136 499Q111 499 91 505L97 524Q111 519 134 519Q210 519 210 572Q210 605 182 613Q160 619 128 619V635H159Q181 638 194 653T208 688Q208 723 167 723Z"/><glyph unicode="&#xB4;" glyph-name="acute" horiz-adv-x="300" d="M180 750L240 743L121 595L76 603L180 750Z"/><glyph unicode="&#xB5;" glyph-name="mu" horiz-adv-x="649" d="M195 -250H130V250H195V-250ZM448 58Q357 -3 276 -3Q242 -3 196 14Q166 25 148 55T130 132V450H60V500H195V152Q195 117 210 95T248 65Q286 53 309 55Q369 56 448 98V450H378V500H513V50H590V0H458L448 58Z"/><glyph unicode="&#xB6;" glyph-name="paragraph" horiz-adv-x="611" d="M209 359T162 403T115 524T163 650T281 700H341V200H281V359Q209 359 162 403ZM498 700V0H448V700H498Z"/><glyph unicode="&#xB7;" glyph-name="middot" horiz-adv-x="136" d="M34 382Q34 399 43 409T66 420Q99 420 99 382Q99 367 90 358T66 348Q34 348 34 382Z"/><glyph unicode="&#xB8;" glyph-name="cedilla" horiz-adv-x="260" d="M58 -118Q133 -92 133 -46Q133 -21 126 0L161 6Q169 -15 169 -32Q169 -70 140 -99T68 -139L58 -118Z"/><glyph unicode="&#xB9;" glyph-name="onesuperior" horiz-adv-x="275" d="M170 749V500H146V731L87 717V735L146 749H170Z"/><glyph unicode="&#xBA;" glyph-name="ordmasculine" horiz-adv-x="300" d="M108 501T83 524T58 596T84 671T151 699T217 676T242 605T216 529T149 501ZM122 677T103 656T83 599T101 544T149 524T197 545T217 602T199 657T151 677Z"/><glyph unicode="&#xBB;" glyph-name="guillemotright" horiz-adv-x="694" d="M331 88V136L535 259L331 382V430L600 259L331 88ZM75 88V136L279 259L75 382V430L344 259L75 88Z"/><glyph unicode="&#xBC;" glyph-name="onequarter" horiz-adv-x="840" d="M509 750H556L305 0H257L509 750ZM675 98H465L453 136L675 463H723V136H755L756 98H723V34L770 31Q769 1 769 0L630 -1V30L667 35Q672 36 675 44V98ZM675 136V393L500 136H675ZM80 692Q80 692 79 725L188 749H230V300H188V716L80 692Z"/><glyph unicode="&#xBD;" glyph-name="onehalf" horiz-adv-x="862" d="M82 691Q82 691 81 725L190 749H233V300H190V716L82 691ZM537 413Q600 448 658 448T753 420T790 328Q790 237 678 128Q662 113 628 81T582 38H772L782 122L815 119L805 1H531L523 38Q649 160 676 191Q745 270 745 330Q745 359 726 385T659 411Q614 411 569 388L554 381L537 413ZM509 750H556L305 0H257L509 750Z"/><glyph unicode="&#xBE;" glyph-name="threequarters" horiz-adv-x="799" d="M672 98H462L450 137L672 464H720V137H752L753 98H720V34L768 32L767 0L626 -1Q626 27 627 30L664 35Q669 36 672 44V98ZM672 137V394L497 137H672ZM115 519V550Q151 550 170 549Q204 553 234 580Q261 603 261 647Q261 673 244 692T194 711Q140 711 93 689L78 682L66 715Q123 749 182 749T274 724T307 652Q307 576 227 542Q310 523 310 437Q310 300 129 300Q85 300 45 311L56 346Q83 337 125 337Q264 337 264 435Q264 459 254 476T231 501T194 514Q165 519 115 519ZM509 750H556L305 0H257L509 750Z"/><glyph unicode="&#xBF;" glyph-name="questiondown" horiz-adv-x="500" d="M261 -200Q182 -200 134 -158T84 -52Q84 -9 113 31T216 145Q313 240 313 372H358Q358 222 276 136T171 17T149 -54T180 -120Q212 -148 267 -148Q300 -148 337 -137T396 -112L417 -99L440 -138Q432 -145 417 -155T355 -183T261 -200ZM371 494Q371 474 361 463T333 451Q295 451 295 494Q295 512 305 523T333 534Q371 534 371 494Z"/><glyph unicode="&#xC0;" glyph-name="Agrave" horiz-adv-x="711" d="M488 0V55H549L503 185H195L150 55H222V0H20V55H86L319 700H380L621 55H690V0H488ZM346 624L212 235H485L346 624ZM370 754L324 746L206 894L266 901L370 754Z"/><glyph unicode="&#xC1;" glyph-name="Aacute" horiz-adv-x="711" d="M488 0V55H549L503 185H195L150 55H222V0H20V55H86L319 700H380L621 55H690V0H488ZM346 624L212 235H485L346 624ZM429 901L489 894L370 746L325 754L429 901Z"/><glyph unicode="&#xC2;" glyph-name="Acircumflex" horiz-adv-x="711" d="M488 0V55H549L503 185H195L150 55H222V0H20V55H86L319 700H380L621 55H690V0H488ZM346 624L212 235H485L346 624ZM177 779L344 940Q502 786 510 779L477 750L343 883L211 750L177 779Z"/><glyph unicode="&#xC3;" glyph-name="Atilde" horiz-adv-x="711" d="M488 0V55H549L503 185H195L150 55H222V0H20V55H86L319 700H380L621 55H690V0H488ZM346 624L212 235H485L346 624ZM259 821Q293 821 360 805T454 788T489 797T502 827L537 820Q528 781 511 766T468 750T367 769Q301 784 265 784Q212 784 205 749L171 756Q184 821 259 821Z"/><glyph unicode="&#xC4;" glyph-name="Adieresis" horiz-adv-x="711" d="M488 0V55H549L503 185H195L150 55H222V0H20V55H86L319 700H380L621 55H690V0H488ZM346 624L212 235H485L346 624ZM221 750T211 761T200 791T210 819T238 830T266 820T277 790T266 761T238 750ZM436 750T426 761T416 791T426 819T453 830Q493 830 493 790Q493 771 482 761T454 750Z"/><glyph unicode="&#xC5;" glyph-name="Aring" horiz-adv-x="711" d="M488 0V55H549L503 185H195L150 55H222V0H20V55H86L319 700H380L621 55H690V0H488ZM346 624L212 235H485L346 624ZM310 750T287 769T263 825T288 885T347 909Q432 909 432 829Q432 796 408 773T347 750ZM327 881T313 866T298 827T311 791T346 778T382 793T397 831T383 867T348 881Z"/><glyph unicode="&#xC6;" glyph-name="AE" horiz-adv-x="728" d="M20 -1L21 33L73 40Q80 40 84 52L85 53L328 700H654L667 556L617 548L605 640H426V377H571Q581 379 581 389L585 438L631 440V269Q630 269 608 268H586L582 317H426V60H632L647 180L696 175L681 0H358V185H196L144 40L222 35Q222 34 222 17L221 0L20 -1ZM358 235V636L214 235H358Z"/><glyph unicode="&#xC7;" glyph-name="Ccedilla" horiz-adv-x="562" d="M353 646Q240 646 174 562T108 320Q108 252 122 201T156 122T207 78Q255 51 319 51Q418 51 517 73L529 21Q512 15 439 6T319 -4T239 2T167 30T103 85T58 180T40 320Q40 497 121 596Q206 700 353 700Q398 700 450 692T525 675L537 531L488 524L474 632Q410 646 353 646ZM270 -118Q345 -92 345 -46Q345 -21 338 0L373 6Q381 -15 381 -32Q381 -70 352 -99T280 -139L270 -118Z"/><glyph unicode="&#xC8;" glyph-name="Egrave" horiz-adv-x="506" d="M20 645V700H445L444 694L457 556L407 548L395 645H149V377H367V440H422V268H367V322H149V55H422L437 180L486 175L471 0H20V55H81V645H20ZM299 753L253 745L135 893L195 900L299 753Z"/><glyph unicode="&#xC9;" glyph-name="Eacute" horiz-adv-x="506" d="M20 645V700H445L444 694L457 556L407 548L395 645H149V377H367V440H422V268H367V322H149V55H422L437 180L486 175L471 0H20V55H81V645H20ZM330 900L390 893L271 745L226 753L330 900Z"/><glyph unicode="&#xCA;" glyph-name="Ecircumflex" horiz-adv-x="506" d="M20 645V700H445L444 694L457 556L407 548L395 645H149V377H367V440H422V268H367V322H149V55H422L437 180L486 175L471 0H20V55H81V645H20ZM98 778L265 939Q423 785 431 778L398 749L264 882L132 749L98 778Z"/><glyph unicode="&#xCB;" glyph-name="Edieresis" horiz-adv-x="506" d="M20 645V700H445L444 694L457 556L407 548L395 645H149V377H367V440H422V268H367V322H149V55H422L437 180L486 175L471 0H20V55H81V645H20ZM144 750T134 761T123 791T133 819T161 830T189 820T200 790T189 761T161 750ZM359 750T349 761T339 791T349 819T376 830Q416 830 416 790Q416 771 405 761T377 750Z"/><glyph unicode="&#xCC;" glyph-name="Igrave" horiz-adv-x="267" d="M184 753L138 745L20 893L80 900L184 753ZM45 645V700H247V645H179V55H247V0H45V55H111V645H45Z"/><glyph unicode="&#xCD;" glyph-name="Iacute" horiz-adv-x="295" d="M215 900L275 893L156 745L111 753L215 900ZM20 645V700H222V645H154V55H222V0H20V55H86V645H20Z"/><glyph unicode="&#xCE;" glyph-name="Icircumflex" horiz-adv-x="374" d="M20 750L187 911Q345 757 353 750L320 721L186 854L54 721L20 750ZM87 645V700H289V645H221V55H289V0H87V55H153V645H87Z"/><glyph unicode="&#xCF;" glyph-name="Idieresis" horiz-adv-x="333" d="M41 749T31 760T20 790T30 818T58 829T86 819T97 789T86 760T58 749ZM256 749T246 760T236 790T246 818T273 829Q313 829 313 789Q313 770 302 760T274 749ZM70 645V700H272V645H204V55H272V0H70V55H136V645H70Z"/><glyph unicode="&#xD0;" glyph-name="Eth" horiz-adv-x="605" d="M50 386H327V358H50V386ZM50 645V700H291Q426 700 507 622T589 366Q589 191 532 104Q482 28 376 8Q329 0 266 0H50V55H111V645H50ZM286 645H179V55H261Q394 55 444 104Q497 155 512 242Q521 293 521 361Q521 511 456 578T286 645Z"/><glyph unicode="&#xD1;" glyph-name="Ntilde" horiz-adv-x="749" d="M46 645V700H183L581 90L577 645H512V700H703V645H640V0H567L168 610L172 55H248V0H46V55H110V645H46ZM276 820Q310 820 377 804T471 787T506 796T519 826L554 819Q545 780 528 765T485 749T384 768Q318 783 282 783Q229 783 222 748L188 755Q201 820 276 820Z"/><glyph unicode="&#xD2;" glyph-name="Ograve" horiz-adv-x="670" d="M40 348Q40 511 124 607T335 704Q630 704 630 348Q630 186 546 91T335 -4Q40 -4 40 348ZM108 350Q108 56 335 56Q433 56 497 134T562 350Q562 644 335 644Q237 644 173 566T108 350ZM378 753L332 745L214 893L274 900L378 753Z"/><glyph unicode="&#xD3;" glyph-name="Oacute" horiz-adv-x="670" d="M40 348Q40 511 124 607T335 704Q630 704 630 348Q630 186 546 91T335 -4Q40 -4 40 348ZM108 350Q108 56 335 56Q433 56 497 134T562 350Q562 644 335 644Q237 644 173 566T108 350ZM440 900L500 893L381 745L336 753L440 900Z"/><glyph unicode="&#xD4;" glyph-name="Ocircumflex" horiz-adv-x="670" d="M40 348Q40 511 124 607T335 704Q630 704 630 348Q630 186 546 91T335 -4Q40 -4 40 348ZM108 350Q108 56 335 56Q433 56 497 134T562 350Q562 644 335 644Q237 644 173 566T108 350ZM197 778L364 939Q522 785 530 778L497 749L363 882L231 749L197 778Z"/><glyph unicode="&#xD5;" glyph-name="Otilde" horiz-adv-x="670" d="M40 348Q40 511 124 607T335 704Q630 704 630 348Q630 186 546 91T335 -4Q40 -4 40 348ZM108 350Q108 56 335 56Q433 56 497 134T562 350Q562 644 335 644Q237 644 173 566T108 350ZM268 832Q302 832 369 816T463 799T498 808T511 838L546 831Q537 792 520 777T477 761T376 780Q310 795 274 795Q221 795 214 760L180 767Q193 832 268 832Z"/><glyph unicode="&#xD6;" glyph-name="Odieresis" horiz-adv-x="670" d="M40 348Q40 511 124 607T335 704Q630 704 630 348Q630 186 546 91T335 -4Q40 -4 40 348ZM108 350Q108 56 335 56Q433 56 497 134T562 350Q562 644 335 644Q237 644 173 566T108 350ZM236 750T226 761T215 791T225 819T253 830T281 820T292 790T281 761T253 750ZM451 750T441 761T431 791T441 819T468 830Q508 830 508 790Q508 771 497 761T469 750Z"/><glyph unicode="&#xD7;" glyph-name="multiply" horiz-adv-x="632" d="M476 -21L316 139L156 -21L115 20L275 180L115 340L156 381L316 221L476 381L517 340L357 180L517 20L476 -21Z"/><glyph unicode="&#xD8;" glyph-name="Oslash" horiz-adv-x="667" d="M615 677L105 0L76 23L586 700L615 677ZM40 348Q40 511 124 607T335 704Q630 704 630 348Q630 186 546 91T335 -4Q40 -4 40 348ZM108 350Q108 56 335 56Q433 56 497 134T562 350Q562 644 335 644Q237 644 173 566T108 350Z"/><glyph unicode="&#xD9;" glyph-name="Ugrave" horiz-adv-x="673" d="M20 645V700H222V645H153V301Q153 146 214 95Q243 70 273 61T343 51Q424 51 475 111T527 301V645H461V700H653V645H590V300Q590 143 521 70T343 -4Q288 -4 247 7T166 50Q85 113 85 300V645H20ZM369 754L323 746L205 894L265 901L369 754Z"/><glyph unicode="&#xDA;" glyph-name="Uacute" horiz-adv-x="673" d="M20 645V700H222V645H153V301Q153 146 214 95Q243 70 273 61T343 51Q424 51 475 111T527 301V645H461V700H653V645H590V300Q590 143 521 70T343 -4Q288 -4 247 7T166 50Q85 113 85 300V645H20ZM429 901L489 894L370 746L325 754L429 901Z"/><glyph unicode="&#xDB;" glyph-name="Ucircumflex" horiz-adv-x="673" d="M20 645V700H222V645H153V301Q153 146 214 95Q243 70 273 61T343 51Q424 51 475 111T527 301V645H461V700H653V645H590V300Q590 143 521 70T343 -4Q288 -4 247 7T166 50Q85 113 85 300V645H20ZM177 779L344 940Q502 786 510 779L477 750L343 883L211 750L177 779Z"/><glyph unicode="&#xDC;" glyph-name="Udieresis" horiz-adv-x="673" d="M20 645V700H222V645H153V301Q153 146 214 95Q243 70 273 61T343 51Q424 51 475 111T527 301V645H461V700H653V645H590V300Q590 143 521 70T343 -4Q288 -4 247 7T166 50Q85 113 85 300V645H20ZM214 750T204 761T193 791T203 819T231 830T259 820T270 790T259 761T231 750ZM429 750T419 761T409 791T419 819T446 830Q486 830 486 790Q486 771 475 761T447 750Z"/><glyph unicode="&#xDD;" glyph-name="Yacute" horiz-adv-x="682" d="M20 645V700H222V645H159L347 292L526 645H465V700H661V645H594L379 236V55H451V0H251V55H316V236L88 645H20ZM414 900L474 893L355 745L310 753L414 900Z"/><glyph unicode="&#xDE;" glyph-name="Thorn" horiz-adv-x="542" d="M51 668L52 700H183V570H260Q383 570 442 528T502 370T441 198T260 142H183V49L252 45Q252 44 252 22L251 0L51 -1Q51 38 52 43L104 50Q111 51 115 59V639Q111 648 104 649L51 655V668ZM255 515H183V197H255Q345 197 389 236T434 365T390 485T255 515Z"/><glyph unicode="&#xDF;" glyph-name="germandbls" horiz-adv-x="656" d="M34 -1L35 33L87 40Q94 41 96 50V447H48L54 500H96V614Q96 682 137 716T247 750T366 708Q391 687 407 653T423 583Q423 525 384 489T328 429T312 374T340 320T407 287T487 263T555 220T583 140Q583 72 534 34T393 -4Q348 -4 303 6T236 32L259 85Q272 74 312 64T372 53T396 53Q450 54 484 75T518 134T490 193T423 225T343 249T275 292T247 362T260 425T300 477T340 529Q361 554 361 583T338 641Q296 694 243 694Q208 694 185 669T161 597V0H155L34 -1Z"/><glyph unicode="&#xE0;" glyph-name="agrave" horiz-adv-x="539" d="M182 -4Q49 -4 41 101Q40 108 40 115Q40 199 141 227Q197 241 357 259V336Q357 445 243 445Q161 444 69 407L52 450L62 454Q140 488 181 495T241 502T277 502T323 493T371 471T407 427T422 358V50H499V0H367L357 38Q267 -4 182 -4ZM200 42Q276 42 357 76V219Q207 214 163 199Q129 190 115 167T101 129T101 110Q104 74 132 58T200 42ZM276 603L230 595L112 743L172 750L276 603Z"/><glyph unicode="&#xE1;" glyph-name="aacute" horiz-adv-x="539" d="M182 -4Q49 -4 41 101Q40 108 40 115Q40 199 141 227Q197 241 357 259V336Q357 445 243 445Q161 444 69 407L52 450L62 454Q140 488 181 495T241 502T277 502T323 493T371 471T407 427T422 358V50H499V0H367L357 38Q267 -4 182 -4ZM200 42Q276 42 357 76V219Q207 214 163 199Q129 190 115 167T101 129T101 110Q104 74 132 58T200 42ZM326 750L386 743L267 595L222 603L326 750Z"/><glyph unicode="&#xE2;" glyph-name="acircumflex" horiz-adv-x="539" d="M182 -4Q49 -4 41 101Q40 108 40 115Q40 199 141 227Q197 241 357 259V336Q357 445 243 445Q161 444 69 407L52 450L62 454Q140 488 181 495T241 502T277 502T323 493T371 471T407 427T422 358V50H499V0H367L357 38Q267 -4 182 -4ZM200 42Q276 42 357 76V219Q207 214 163 199Q129 190 115 167T101 129T101 110Q104 74 132 58T200 42ZM82 600L249 761Q407 607 415 600L382 571L248 704L116 571L82 600Z"/><glyph unicode="&#xE3;" glyph-name="atilde" horiz-adv-x="539" d="M182 -4Q49 -4 41 101Q40 108 40 115Q40 199 141 227Q197 241 357 259V336Q357 445 243 445Q161 444 69 407L52 450L62 454Q140 488 181 495T241 502T277 502T323 493T371 471T407 427T422 358V50H499V0H367L357 38Q267 -4 182 -4ZM200 42Q276 42 357 76V219Q207 214 163 199Q129 190 115 167T101 129T101 110Q104 74 132 58T200 42ZM144 655Q178 655 245 639T339 622T374 631T387 661L422 654Q413 615 396 600T353 584T252 603Q186 618 150 618Q97 618 90 583L56 590Q69 655 144 655Z"/><glyph unicode="&#xE4;" glyph-name="adieresis" horiz-adv-x="539" d="M182 -4Q49 -4 41 101Q40 108 40 115Q40 199 141 227Q197 241 357 259V336Q357 445 243 445Q161 444 69 407L52 450L62 454Q140 488 181 495T241 502T277 502T323 493T371 471T407 427T422 358V50H499V0H367L357 38Q267 -4 182 -4ZM200 42Q276 42 357 76V219Q207 214 163 199Q129 190 115 167T101 129T101 110Q104 74 132 58T200 42ZM119 570T109 581T98 611T108 639T136 650T164 640T175 610T164 581T136 570ZM334 570T324 581T314 611T324 639T351 650Q391 650 391 610Q391 591 380 581T352 570Z"/><glyph unicode="&#xE5;" glyph-name="aring" horiz-adv-x="462" d="M182 -4Q49 -4 41 101Q40 108 40 115Q40 199 141 227Q197 241 357 259V336Q357 445 243 445Q161 444 69 407L52 450L62 454Q140 488 181 495T241 502T277 502T323 493T371 471T407 427T422 358V50H499V0H367L357 38Q267 -4 182 -4ZM200 42Q276 42 357 76V219Q207 214 163 199Q129 190 115 167T101 129T101 110Q104 74 132 58T200 42ZM222 585T199 604T175 660T200 720T259 744Q344 744 344 664Q344 631 320 608T259 585ZM239 716T225 701T210 662T223 626T258 613T294 628T309 666T295 702T260 716Z"/><glyph unicode="&#xE6;" glyph-name="ae" horiz-adv-x="721" d="M373 468Q429 504 508 504T636 452T686 306Q686 286 683 263H326Q325 252 325 230Q325 54 493 54Q537 54 583 63T644 81L659 28Q635 15 583 6T483 -4Q397 -4 344 32Q260 -4 182 -4Q49 -4 41 101Q40 108 40 115Q40 199 141 227Q166 233 260 247Q264 354 321 423Q294 445 238 445T105 420L101 334L52 329V450L62 454Q140 488 181 495Q229 503 254 503Q326 503 373 468ZM626 300Q626 418 540 437Q522 442 506 442Q436 442 392 401T333 300H626ZM163 199Q129 190 115 167T101 129T101 110Q104 74 132 58T203 42T312 60Q263 116 260 214Q192 209 163 199Z"/><glyph unicode="&#xE7;" glyph-name="ccedilla" horiz-adv-x="478" d="M300 446Q215 446 163 390T110 231Q110 54 275 54Q339 54 382 64T429 78L443 31Q420 16 367 6T271 -4T193 5T123 37T66 109T45 230Q45 361 112 428Q187 505 301 505Q337 505 377 496T440 466V335L391 328L386 433Q345 446 300 446ZM202 -118Q277 -92 277 -46Q277 -21 270 0L305 6Q313 -15 313 -32Q313 -70 284 -99T212 -139L202 -118Z"/><glyph unicode="&#xE8;" glyph-name="egrave" horiz-adv-x="506" d="M108 224Q108 135 159 95T278 54Q322 54 368 62T430 78L443 31Q420 16 368 6T272 -4T194 5T123 37T66 109T45 229Q45 361 113 431Q184 504 278 504T421 452T471 306Q471 286 468 263H111Q108 242 108 224ZM411 313Q411 375 374 408T288 442Q221 442 177 402T118 302H411Q411 308 411 313ZM312 603L266 595L148 743L208 750L312 603Z"/><glyph unicode="&#xE9;" glyph-name="eacute" horiz-adv-x="506" d="M108 224Q108 135 159 95T278 54Q322 54 368 62T430 78L443 31Q420 16 368 6T272 -4T194 5T123 37T66 109T45 229Q45 361 113 431Q184 504 278 504T421 452T471 306Q471 286 468 263H111Q108 242 108 224ZM411 313Q411 375 374 408T288 442Q221 442 177 402T118 302H411Q411 308 411 313ZM387 750L447 743L328 595L283 603L387 750Z"/><glyph unicode="&#xEA;" glyph-name="ecircumflex" horiz-adv-x="506" d="M108 224Q108 135 159 95T278 54Q322 54 368 62T430 78L443 31Q420 16 368 6T272 -4T194 5T123 37T66 109T45 229Q45 361 113 431Q184 504 278 504T421 452T471 306Q471 286 468 263H111Q108 242 108 224ZM411 313Q411 375 374 408T288 442Q221 442 177 402T118 302H411Q411 308 411 313ZM125 600L292 761Q450 607 458 600L425 571L291 704L159 571L125 600Z"/><glyph unicode="&#xEB;" glyph-name="edieresis" horiz-adv-x="506" d="M108 224Q108 135 159 95T278 54Q322 54 368 62T430 78L443 31Q420 16 368 6T272 -4T194 5T123 37T66 109T45 229Q45 361 113 431Q184 504 278 504T421 452T471 306Q471 286 468 263H111Q108 242 108 224ZM411 313Q411 375 374 408T288 442Q221 442 177 402T118 302H411Q411 308 411 313ZM168 570T158 581T147 611T157 639T185 650T213 640T224 610T213 581T185 570ZM383 570T373 581T363 611T373 639T400 650Q440 650 440 610Q440 591 429 581T401 570Z"/><glyph unicode="&#xEC;" glyph-name="igrave" horiz-adv-x="286" d="M191 459V40L266 35Q266 34 266 17L265 0L65 -1Q65 28 66 33L118 40Q126 41 126 54V444Q126 455 120 455L60 457L61 491Q115 500 143 500T181 487T191 459ZM184 603L138 595L20 743L80 750L184 603Z"/><glyph unicode="&#xED;" glyph-name="iacute" horiz-adv-x="285" d="M191 459V40L266 35Q266 34 266 17L265 0L65 -1Q65 28 66 33L118 40Q126 41 126 54V444Q126 455 120 455L60 457L61 491Q115 500 143 500T181 487T191 459ZM215 750L275 743L156 595L111 603L215 750Z"/><glyph unicode="&#xEE;" glyph-name="icircumflex" horiz-adv-x="444" d="M261 459V40L336 35Q336 34 336 17L335 0L135 -1Q135 28 136 33L188 40Q196 41 196 54V444Q196 455 190 455L130 457L131 491Q185 500 213 500T251 487T261 459ZM60 600L227 761Q385 607 393 600L360 571L226 704L94 571L60 600Z"/><glyph unicode="&#xEF;" glyph-name="idieresis" horiz-adv-x="403" d="M241 459V40L316 35Q316 34 316 17L315 0L115 -1Q115 28 116 33L168 40Q176 41 176 54V444Q176 455 170 455L110 457L111 491Q165 500 193 500T231 487T241 459ZM81 570T71 581T60 611T70 639T98 650T126 640T137 610T126 581T98 570ZM296 570T286 581T276 611T286 639T313 650Q353 650 353 610Q353 591 342 581T314 570Z"/><glyph unicode="&#xF0;" glyph-name="eth" horiz-adv-x="625" d="M550 270Q550 136 482 66T309 -4T140 56T75 239T143 433T314 504Q379 504 423 471Q360 578 247 645L173 549L148 569L219 661Q168 687 115 704L131 750Q190 726 246 697L311 781L336 761L275 681Q550 525 550 270ZM316 446Q240 446 190 392T140 246T187 104T310 54T434 106T485 256Q485 307 470 362L467 359Q408 446 316 446Z"/><glyph unicode="&#xF1;" glyph-name="ntilde" horiz-adv-x="630" d="M50 450V500H182V444Q264 500 339 503Q412 503 450 474Q467 461 480 434T494 368V50H571V0H369V50H429V343Q429 440 315 440Q253 438 182 399V50H257V0H55V50H117V450H50ZM212 669Q246 669 313 653T407 636T442 645T455 675L490 668Q481 629 464 614T421 598T320 617Q254 632 218 632Q165 632 158 597L124 604Q137 669 212 669Z"/><glyph unicode="&#xF2;" glyph-name="ograve" horiz-adv-x="576" d="M175 -4T111 56T46 239T114 433T287 504T456 444T521 261T453 67T280 -4ZM211 446T161 392T111 246T158 104T281 54T406 107T456 253T408 396T286 446ZM326 603L280 595L162 743L222 750L326 603Z"/><glyph unicode="&#xF3;" glyph-name="oacute" horiz-adv-x="576" d="M175 -4T111 56T46 239T114 433T287 504T456 444T521 261T453 67T280 -4ZM211 446T161 392T111 246T158 104T281 54T406 107T456 253T408 396T286 446ZM404 750L464 743L345 595L300 603L404 750Z"/><glyph unicode="&#xF4;" glyph-name="ocircumflex" horiz-adv-x="576" d="M175 -4T111 56T46 239T114 433T287 504T456 444T521 261T453 67T280 -4ZM211 446T161 392T111 246T158 104T281 54T406 107T456 253T408 396T286 446ZM130 600L297 761Q455 607 463 600L430 571L296 704L164 571L130 600Z"/><glyph unicode="&#xF5;" glyph-name="otilde" horiz-adv-x="576" d="M175 -4T111 56T46 239T114 433T287 504T456 444T521 261T453 67T280 -4ZM211 446T161 392T111 246T158 104T281 54T406 107T456 253T408 396T286 446ZM200 655Q234 655 301 639T395 622T430 631T443 661L478 654Q469 615 452 600T409 584T308 603Q242 618 206 618Q153 618 146 583L112 590Q125 655 200 655Z"/><glyph unicode="&#xF6;" glyph-name="odieresis" horiz-adv-x="576" d="M175 -4T111 56T46 239T114 433T287 504T456 444T521 261T453 67T280 -4ZM211 446T161 392T111 246T158 104T281 54T406 107T456 253T408 396T286 446ZM165 580T155 591T144 621T154 649T182 660T210 650T221 620T210 591T182 580ZM380 580T370 591T360 621T370 649T397 660Q437 660 437 620Q437 601 426 591T398 580Z"/><glyph unicode="&#xF7;" glyph-name="divide" horiz-adv-x="768" d="M333 95Q333 117 345 130T377 144Q420 144 420 95Q420 74 408 61T377 48Q333 48 333 95ZM333 418Q333 440 345 454T377 468Q420 468 420 418Q420 397 408 385T377 372Q333 372 333 418ZM146 290H600V232H146V290Z"/><glyph unicode="&#xF8;" glyph-name="oslash" horiz-adv-x="625" d="M131 64Q75 128 75 245T143 433T317 504Q401 504 458 466L493 508L526 486L488 440Q550 376 550 257T482 67T315 -4T160 38L124 -7L92 17L131 64ZM385 54T435 107T485 248T445 387L202 89Q246 54 315 54ZM240 446T190 392T140 253T175 118L416 414Q373 446 317 446Q240 446 190 392Z"/><glyph unicode="&#xF9;" glyph-name="ugrave" horiz-adv-x="649" d="M448 58Q357 -3 276 -3Q242 -3 196 14Q166 25 148 55T130 132V450H60V500H195V152Q195 117 210 95T248 65Q286 53 309 55Q369 56 448 98V450H378V500H513V50H590V0H458L448 58ZM327 603L281 595L163 743L223 750L327 603Z"/><glyph unicode="&#xFA;" glyph-name="uacute" horiz-adv-x="649" d="M448 58Q357 -3 276 -3Q242 -3 196 14Q166 25 148 55T130 132V450H60V500H195V152Q195 117 210 95T248 65Q286 53 309 55Q369 56 448 98V450H378V500H513V50H590V0H458L448 58ZM398 752L458 745L339 597L294 605L398 752Z"/><glyph unicode="&#xFB;" glyph-name="ucircumflex" horiz-adv-x="649" d="M448 58Q357 -3 276 -3Q242 -3 196 14Q166 25 148 55T130 132V450H60V500H195V152Q195 117 210 95T248 65Q286 53 309 55Q369 56 448 98V450H378V500H513V50H590V0H458L448 58ZM149 600L316 761Q474 607 482 600L449 571L315 704L183 571L149 600Z"/><glyph unicode="&#xFC;" glyph-name="udieresis" horiz-adv-x="649" d="M448 58Q357 -3 276 -3Q242 -3 196 14Q166 25 148 55T130 132V450H60V500H195V152Q195 117 210 95T248 65Q286 53 309 55Q369 56 448 98V450H378V500H513V50H590V0H458L448 58ZM190 570T180 581T169 611T179 639T207 650T235 640T246 610T235 581T207 570ZM405 570T395 581T385 611T395 639T422 650Q462 650 462 610Q462 591 451 581T423 570Z"/><glyph unicode="&#xFD;" glyph-name="yacute" horiz-adv-x="653" d="M429 450V500H613V450H553L354 0L321 -199H405V-249H194V-199H256L287 0H270L108 450H40V500H251V450H182L314 47L484 450H429ZM419 750L479 743L360 595L315 603L419 750Z"/><glyph unicode="&#xFE;" glyph-name="thorn" horiz-adv-x="570" d="M65 -250L66 -216L118 -209Q127 -208 127 -195V697Q125 705 121 705L60 707L61 741Q124 750 147 750T181 737T192 709V463Q255 509 326 509Q394 509 454 467Q486 444 505 395T525 276Q525 143 459 76Q384 0 265 0Q230 0 192 5V-209L277 -214L276 -231Q276 -248 276 -249L65 -250ZM192 422V56Q221 49 255 49Q354 49 407 107T460 271Q460 394 388 432Q353 451 307 451T192 422Z"/><glyph unicode="&#xFF;" glyph-name="ydieresis" horiz-adv-x="653" d="M429 450V500H613V450H553L354 0L321 -199H405V-249H194V-199H256L287 0H270L108 450H40V500H251V450H182L314 47L484 450H429ZM198 570T188 581T177 611T187 639T215 650T243 640T254 610T243 581T215 570ZM413 570T403 581T393 611T403 639T430 650Q470 650 470 610Q470 591 459 581T431 570Z"/><glyph unicode="&#x2013;" glyph-name="endash" horiz-adv-x="601" d="M80 290H534V232H80V290Z"/><glyph unicode="&#x2014;" glyph-name="emdash" horiz-adv-x="701" d="M80 290H634V232H80V290Z"/><glyph unicode="&#x2018;" glyph-name="quoteleft" horiz-adv-x="200" d="M89 597Q79 657 79 713L123 718Q122 705 122 680V640Q122 623 122 612L123 601L89 597Z"/><glyph unicode="&#x2019;" glyph-name="quoteright" horiz-adv-x="200" d="M80 636V668Q80 702 79 715L123 718Q123 704 122 690T121 665T119 643T117 625T115 612T113 600L79 598L80 609Q80 620 80 636Z"/><glyph unicode="&#x201A;" glyph-name="quotesinglbase" horiz-adv-x="200" d="M80 6V38Q80 72 79 85L123 88Q123 74 122 60T121 35T119 13T117 -5T115 -18T113 -30L79 -32L80 -21Q80 -10 80 6Z"/><glyph unicode="&#x201C;" glyph-name="quotedblleft" horiz-adv-x="300" d="M89 597Q79 657 79 713L123 718Q122 705 122 680V640Q122 623 122 612L123 601L89 597ZM199 597Q189 657 189 713L233 718Q232 705 232 680V640Q232 623 232 612L233 601L199 597Z"/><glyph unicode="&#x201D;" glyph-name="quotedblright" horiz-adv-x="300" d="M80 636V668Q80 702 79 715L123 718Q123 704 122 690T121 665T119 643T117 625T115 612T113 600L79 598L80 609Q80 620 80 636ZM190 636V668Q190 702 189 715L233 718Q233 704 232 690T231 665T229 643T227 625T225 612T223 600L189 598L190 609Q190 620 190 636Z"/><glyph unicode="&#x201E;" glyph-name="quotedblbase" horiz-adv-x="300" d="M80 6V38Q80 72 79 85L123 88Q123 74 122 60T121 35T119 13T117 -5T115 -18T113 -30L79 -32L80 -21Q80 -10 80 6ZM190 6V38Q190 72 189 85L233 88Q233 74 232 60T231 35T229 13T227 -5T225 -18T223 -30L189 -32L190 -21Q190 -10 190 6Z"/><glyph unicode="&#x2022;" glyph-name="bullet" horiz-adv-x="463" d="M175 293T139 327T103 421T140 519T231 557T321 523T358 428T321 331T229 293Z"/><glyph unicode="&#x2039;" glyph-name="guilsinglleft" horiz-adv-x="436" d="M344 136V88L75 259L344 430V382L140 259L344 136Z"/><glyph unicode="&#x203A;" glyph-name="guilsinglright" horiz-adv-x="436" d="M75 88V136L279 259L75 382V430L344 259L75 88Z"/></font>
</defs>
</svg>
