<?xml version="1.0" encoding="utf-8" ?>
<!DOCTYPE svg PUBLIC "-//W3C//DTD SVG 1.1//EN" "http://www.w3.org/Graphics/SVG/1.1/DTD/svg11.dtd">
<svg xmlns="http://www.w3.org/2000/svg"><defs><font id="Laila" horiz-adv-x="619"><font-face font-family="Laila" units-per-em="1000" panose-1="2 0 0 0 0 0 0 0 0 0" ascent="1098" descent="-452" alphabetic="0"/><glyph unicode="" glyph-name="space" horiz-adv-x="280"/><glyph unicode="!" glyph-name="exclam" horiz-adv-x="418" d="M217 370Q208 318 208 287T211 236Q194 222 173 222Q118 222 104 314L65 605Q62 626 62 644Q62 693 84 727Q113 773 164 773T246 726Q267 694 267 649Q267 628 263 605L217 370ZM219 162T239 142T259 86T229 19T162 -12T106 9T85 65T116 131T183 162Z"/><glyph unicode="&quot;" glyph-name="quotedbl" horiz-adv-x="515" d="M227 812Q227 744 201 669T151 594T100 669T72 805T92 898T149 930Q227 930 227 812ZM443 812Q443 744 417 669T367 594T316 669T288 805T308 898T365 930Q443 930 443 812Z"/><glyph unicode="#" glyph-name="numbersign" horiz-adv-x="908" d="M501 278L557 457H402L346 278H501ZM710 457H702L646 278H746Q756 256 756 241Q756 214 724 196T623 178H615L593 108Q556 -11 457 -11Q438 -11 425 -5T406 9T391 32Q428 48 446 103L470 178H315L293 108Q256 -11 157 -11Q138 -11 125 -5T106 9T91 32Q128 48 146 103L170 178H74Q65 198 65 215Q65 242 97 260T198 278H201L257 457H162Q152 479 152 494Q152 521 184 539T286 558H289L311 628Q331 691 358 718T438 746T514 703Q475 686 458 634L434 558H589L611 628Q631 691 658 718T738 746T814 703Q775 686 758 634L734 558H834Q844 536 844 521Q844 494 812 476T710 457Z"/><glyph unicode="$" glyph-name="dollar" horiz-adv-x="709" d="M451 772V741Q539 728 591 690T643 598Q643 561 620 539T555 516T478 542Q486 558 486 583T457 629T373 649T283 629T248 576T290 514T393 459T514 401T617 320T660 208Q660 123 591 64T419 -8V-41Q419 -95 451 -112Q415 -155 360 -155Q262 -155 262 -36V-1Q179 17 129 57T78 146T107 219T178 244T260 212Q236 190 236 159T272 107T370 86T467 111T503 177T461 251T358 310T237 365T134 438T91 540Q91 618 147 670T294 739V778Q294 829 260 847Q298 890 352 890Q451 890 451 772Z"/><glyph unicode="%" glyph-name="percent" horiz-adv-x="947" d="M418 463T363 396T227 328T104 384T60 525T112 678T246 746T372 689T418 548ZM286 574T272 610T236 646T199 618T185 544T199 462T234 426T271 452T286 526ZM640 683Q684 746 725 746T787 707Q770 701 732 648L308 54Q263 -12 223 -12T162 29Q171 33 188 52T218 89L640 683ZM887 125T832 57T696 -11T573 45T529 187T581 340T715 408T841 351T887 210ZM755 235T741 271T705 307T668 280T654 206T668 124T703 88T740 114T755 187Z"/><glyph unicode="&amp;" glyph-name="ampersand" horiz-adv-x="780" d="M335 480Q352 460 352 438T345 397T311 365T247 350H243Q200 314 200 259T251 168T376 133T501 168T552 260Q552 349 457 349Q442 374 442 394T459 431T517 448Q589 448 611 476Q627 497 627 520T624 560Q661 575 691 575T744 560Q792 532 792 476T751 391T626 361H618Q643 311 643 258Q643 145 558 67T346 -11T140 48T60 204T169 365Q78 405 78 523Q78 617 146 682T290 748T415 716T466 639T424 568Q399 552 373 552T324 559Q324 661 260 661Q233 661 216 642T198 589Q198 541 236 511T335 480Z"/><glyph unicode="'" glyph-name="quotesingle" horiz-adv-x="299" d="M227 812Q227 744 201 669T151 594T100 669T72 805T92 898T149 930Q227 930 227 812Z"/><glyph unicode="(" glyph-name="parenleft" horiz-adv-x="529" d="M493 968Q264 702 264 350T493 -269Q480 -299 435 -299T333 -247T223 -109T133 100T96 349T133 598T223 807T332 945T434 998T493 968Z"/><glyph unicode=")" glyph-name="parenright" horiz-adv-x="529" d="M408 653T432 552T457 337T420 100T330 -109T221 -246T120 -299T60 -269Q289 -3 289 349T60 968Q74 998 124 998Q156 998 199 965T287 871T370 731Z"/><glyph unicode="*" glyph-name="asterisk" horiz-adv-x="653" d="M362 929T382 906T402 844T358 734Q432 815 486 815Q516 815 536 795T557 739T529 682T465 661T384 671Q431 651 465 621T499 559T474 505T420 482Q375 482 353 528T326 635Q312 481 230 481Q200 481 177 506T154 562T188 622T268 672Q231 664 192 664T125 684T96 740T119 795T170 816T230 794T290 740Q252 810 252 847T271 906T326 929Z"/><glyph unicode="+" glyph-name="plus" horiz-adv-x="730" d="M301 478L296 601Q296 727 394 727Q409 727 430 719L426 478L670 481Q676 467 676 450Q676 349 545 349Q536 349 426 353Q430 266 430 223T407 142T329 103Q309 103 301 109L305 353L60 349Q52 363 52 385Q52 481 181 481Q191 481 301 478Z"/><glyph unicode="," glyph-name="comma" horiz-adv-x="359" d="M82 -196Q156 -139 156 -55T86 72Q98 106 125 130T193 154T267 115T299 8Q299 -83 239 -156T121 -229Q90 -229 82 -196Z"/><glyph unicode="-" glyph-name="hyphen" horiz-adv-x="588" d="M205 416H522Q528 405 528 381T516 335T490 304T452 288Q424 282 383 282H68Q60 301 60 323T72 366T98 395T136 410Q164 416 205 416Z"/><glyph unicode="." glyph-name="period" horiz-adv-x="396" d="M250 180T272 157T295 95T262 22T189 -12T126 11T103 73T137 146T211 180Z"/><glyph unicode="/" glyph-name="slash" horiz-adv-x="631" d="M494 1052Q529 1052 554 1031Q534 1016 516 959L161 -64Q127 -155 72 -155Q40 -155 14 -132Q31 -118 53 -58L407 962Q437 1052 494 1052Z"/><glyph unicode="0" glyph-name="zero" horiz-adv-x="689" d="M48 201T48 368T123 640T344 746Q442 746 510 695T610 560T641 368T610 177T511 41T344 -11Q198 -11 123 95ZM328 643Q208 643 208 421Q208 396 210 368Q223 92 359 92Q480 92 480 316Q480 340 479 368Q466 643 328 643Z"/><glyph unicode="1" glyph-name="one" horiz-adv-x="394" d="M289 638V103Q289 49 322 32Q284 -11 230 -11Q132 -11 132 108V595Q132 626 106 626Q77 626 50 605Q28 614 28 640Q28 677 74 711T178 746T262 717T289 638Z"/><glyph unicode="2" glyph-name="two" horiz-adv-x="584" d="M560 100Q560 0 398 0H130Q69 0 40 36Q23 58 23 83T30 132Q209 245 285 338Q316 377 337 425T358 530T335 618T270 650Q242 650 227 632T211 590T227 549T270 522Q239 461 157 461Q108 461 72 489T36 569Q36 643 111 694T291 746T464 682T532 517T443 310T185 128L403 142Q493 146 533 174Q560 139 560 100Z"/><glyph unicode="3" glyph-name="three" horiz-adv-x="578" d="M499 586Q499 536 467 498T382 442Q445 425 487 371T530 238Q530 132 443 61T248 -11Q134 -11 70 54Q36 90 36 139T69 213T127 239Q149 171 199 134T301 97T378 123T404 187Q404 245 352 293T211 341Q183 341 168 337Q154 348 154 369T184 413T251 451T317 495T348 558T320 613T252 634Q185 634 119 584Q105 588 97 601T88 631Q88 675 151 710T299 746T442 703T499 586Z"/><glyph unicode="4" glyph-name="four" horiz-adv-x="655" d="M206 288H353V558Q353 576 341 576Q323 576 281 525T204 408T169 311Q169 298 177 293T206 288ZM529 176H510V103Q510 49 542 32Q506 -11 451 -11Q353 -11 353 108V176H127Q48 176 48 240Q48 315 114 436T272 652T431 746Q510 746 510 626V288H542Q592 288 613 306Q631 286 631 255T603 200T529 176Z"/><glyph unicode="5" glyph-name="five" horiz-adv-x="583" d="M181 446Q249 485 329 485T475 421T541 254T459 70T256 -11Q172 -11 110 29T48 136Q48 186 82 212T150 238Q170 179 214 147T309 115T390 139T421 209Q421 274 366 312T243 350T126 329Q105 329 91 344T76 383T126 648Q144 736 275 736H392Q445 736 470 756Q490 734 490 690T454 621T338 595H214L181 446Z"/><glyph unicode="6" glyph-name="six" horiz-adv-x="640" d="M60 322Q60 400 85 475T155 611T265 709T408 746Q435 746 457 732T479 692Q479 685 478 682Q360 669 291 578T222 350T266 149T367 83Q403 83 429 108T455 175Q455 236 407 289T271 347Q272 393 305 424T396 455T501 420T571 337T592 241Q592 127 520 58T338 -11Q208 -11 134 85T60 322Z"/><glyph unicode="7" glyph-name="seven" horiz-adv-x="526" d="M169 736H493Q502 725 502 697T467 606T388 477T310 324T274 162T336 62Q335 59 334 54T325 37T307 14Q280 -11 232 -11T151 27T118 127T163 273T277 458T367 599Q344 595 311 595H115Q63 595 37 575Q18 601 18 632T30 683T58 714T98 730Q128 736 169 736Z"/><glyph unicode="8" glyph-name="eight" horiz-adv-x="653" d="M235 335Q200 289 200 229T241 122T353 74Q390 74 420 96T450 158Q450 228 336 284Q287 307 235 335ZM406 419Q430 462 430 516T392 618T296 665Q262 665 237 643T212 583Q212 552 240 518Q256 499 291 480T359 443T406 419ZM571 541Q571 441 478 378Q593 301 593 198Q593 144 567 102T501 36Q420 -11 338 -11Q232 -11 146 48T60 212T164 380Q80 450 80 539T147 687T320 746Q378 746 434 724T530 654T571 541Z"/><glyph unicode="9" glyph-name="nine" horiz-adv-x="640" d="M580 414Q580 309 538 213T415 53T232 -11Q204 -11 183 3T161 43Q161 50 162 54Q279 67 348 158T418 386T374 587T272 653Q236 653 211 627T185 560Q185 499 233 447T368 389Q367 342 334 312T244 281T139 316T69 399T48 494Q48 608 120 677T301 746Q431 746 505 651T580 414Z"/><glyph unicode=":" glyph-name="colon" horiz-adv-x="398" d="M251 550T273 527T295 465T262 392T189 358T126 381T103 443T137 516T211 550ZM250 181T272 158T295 96T262 23T189 -11T126 12T103 74T137 147T211 181Z"/><glyph unicode=";" glyph-name="semicolon" horiz-adv-x="398" d="M251 550T273 527T295 465T262 392T189 358T126 381T103 443T137 516T211 550ZM156 -37Q156 54 86 96Q98 130 125 154T188 178Q241 178 267 139T294 45T269 -74T202 -183T126 -229T82 -196Q118 -168 137 -125T156 -37Z"/><glyph unicode="&lt;" glyph-name="less" horiz-adv-x="768" d="M257 454Q257 433 397 367T661 251Q661 195 633 162T560 128T397 180T173 303T68 417T184 536T425 665T583 720T638 704T662 656Q257 491 257 454Z"/><glyph unicode="=" glyph-name="equal" horiz-adv-x="769" d="M210 623H697Q703 612 703 587T691 541T665 510T626 494Q599 488 558 488H73Q65 509 65 530T77 572T103 601T142 616Q169 623 210 623ZM210 342H697Q703 332 703 307T691 261T665 230T626 214Q599 208 558 208H73Q65 227 65 249T77 292T103 321T142 336Q169 342 210 342Z"/><glyph unicode="&gt;" glyph-name="greater" horiz-adv-x="734" d="M452 232T334 180T171 128T98 161T70 251Q194 300 334 366T474 454Q474 491 68 656Q68 688 92 704T147 720T304 666T546 536T662 418T557 303Z"/><glyph unicode="?" glyph-name="question" horiz-adv-x="610" d="M402 403T384 377T365 330T379 294T418 272Q415 244 392 227T331 209T262 238T232 317Q232 375 286 430Q308 454 330 479T368 539T384 614T359 679T296 704Q224 704 224 647Q224 624 240 605T277 577Q277 563 246 538T171 512T96 543T66 620Q66 693 139 738T310 784T476 738T544 617T480 478Q454 452 428 428ZM375 160T397 140T420 84T386 19T313 -11T251 10T228 65T262 129T336 160Z"/><glyph unicode="@" glyph-name="at" horiz-adv-x="958" d="M403 199Q403 162 452 162Q488 162 522 194L527 275Q403 267 403 199ZM535 416Q535 464 488 464Q468 464 454 453T440 422T452 388Q417 358 371 358T305 376T284 422Q284 473 350 503T500 534T631 500T677 398Q677 391 677 384L666 194Q666 190 666 187Q666 152 696 152Q742 152 779 204Q820 261 820 363Q820 486 745 560T530 635Q337 635 229 521T120 238Q120 105 196 35T416 -36Q527 -36 631 2Q639 -6 639 -15Q639 -36 594 -57Q513 -96 395 -96Q244 -96 149 -8T54 238Q54 330 89 414T187 560T340 658T525 695T688 668T798 594Q886 499 886 368T812 159T629 80Q546 80 526 137Q467 80 378 80Q314 80 280 107T246 178Q246 248 323 287T530 329L535 408Q535 412 535 416Z"/><glyph unicode="A" glyph-name="A" horiz-adv-x="742" d="M288 236H444L371 493L288 236ZM710 20T682 5T614 -11T550 8T505 78L481 140H254L229 70Q201 -11 134 -11Q102 -11 74 3T36 40Q53 47 64 63T90 115L295 644Q277 683 256 698Q287 746 352 746Q402 746 425 719T474 622L653 138Q679 67 722 46Q710 20 682 5Z"/><glyph unicode="B" glyph-name="B" horiz-adv-x="785" d="M665 541Q665 485 628 447T523 394Q594 382 650 338Q678 315 695 281T713 204Q713 110 623 50T387 -11T173 31T104 169V584Q104 653 77 694Q220 746 369 746T591 688T665 541ZM375 427Q434 427 469 456T504 532T469 608T370 638T262 625V428L371 427Q373 427 375 427ZM262 156Q262 97 389 97Q465 97 508 128T551 210T508 292T389 324H262V156Z"/><glyph unicode="C" glyph-name="C" horiz-adv-x="738" d="M670 599Q670 554 638 533T561 511T482 532Q486 552 486 577T472 625Q450 658 401 658Q329 658 278 584T227 377T282 187T436 130Q496 130 550 158T637 226Q672 211 672 164Q672 103 590 46T395 -11Q237 -11 150 86T62 360T157 641T415 746Q520 746 595 704T670 599Z"/><glyph unicode="D" glyph-name="D" horiz-adv-x="803" d="M104 169V584Q104 653 77 694Q220 746 356 746Q529 746 636 646T744 368T637 89T356 -11Q226 -11 165 31T104 169ZM262 158Q262 96 361 96T521 170T582 367T522 565T356 640Q310 640 262 622V158Z"/><glyph unicode="E" glyph-name="E" horiz-adv-x="716" d="M337 128H498Q569 128 624 168Q656 141 656 97T624 27T528 0H311Q211 0 165 43T118 179V623Q118 674 84 692Q121 736 175 736H509Q588 736 622 716T656 655T624 588Q576 607 498 607H275V457H413Q493 457 526 440T560 383T528 317Q492 329 402 329H275V199Q275 128 337 128Z"/><glyph unicode="F" glyph-name="F" horiz-adv-x="670" d="M175 736H521Q597 736 626 718T656 664T624 600Q576 619 498 619H275V442H413Q493 442 526 428T560 380T528 324Q492 334 402 334H275V103Q275 49 307 32Q271 -11 216 -11Q118 -11 118 108V623Q118 674 84 692Q121 736 175 736Z"/><glyph unicode="G" glyph-name="G" horiz-adv-x="790" d="M716 280V7Q716 -47 749 -64Q711 -107 659 -107T583 -78T559 12V66Q502 -11 382 -11Q266 -11 168 73Q121 114 92 184T62 341Q62 521 166 633T462 746Q569 746 644 702T720 596Q720 560 687 536T610 511T533 532Q534 542 534 551Q534 596 508 627T430 658Q339 658 286 580Q230 500 230 374T282 179T428 109Q559 109 559 230V277H527Q475 277 433 275Q415 301 415 335T450 383T570 397T685 370T716 280Z"/><glyph unicode="H" glyph-name="H" horiz-adv-x="852" d="M743 628V103Q743 49 775 32Q739 -11 684 -11Q586 -11 586 108V323H268V103Q268 49 300 32Q262 -11 210 -11T134 18T110 108V634Q110 686 77 703Q113 746 168 746Q268 746 268 628V425H586V634Q586 685 552 703Q590 746 642 746T719 717T743 628Z"/><glyph unicode="I" glyph-name="I" horiz-adv-x="377" d="M268 628V103Q268 49 300 32Q262 -11 210 -11T134 18T110 108V634Q110 686 77 703Q113 746 168 746Q268 746 268 628Z"/><glyph unicode="J" glyph-name="J" horiz-adv-x="468" d="M403 628V197Q403 95 345 42T200 -11T66 21T18 96T43 162Q98 114 162 114Q199 114 222 133T246 190V634Q246 685 212 703Q250 746 304 746Q403 746 403 628Z"/><glyph unicode="K" glyph-name="K" horiz-adv-x="769" d="M721 55T689 22T616 -11T542 14T451 102L268 307V103Q268 49 300 32Q262 -11 210 -11T134 18T110 108V634Q110 686 77 703Q113 746 168 746Q268 746 268 628V433L458 653Q504 706 535 726T611 746T684 716T715 638Q708 639 701 639Q669 639 638 612L397 391L617 156Q665 106 714 106H721Q721 55 689 22Z"/><glyph unicode="L" glyph-name="L" horiz-adv-x="589" d="M110 167V634Q110 686 77 703Q113 746 168 746Q268 746 268 628V187Q268 116 330 116H433Q504 116 541 156Q565 139 565 100T534 30T442 0H292Q192 0 151 37T110 167Z"/><glyph unicode="M" glyph-name="M" horiz-adv-x="970" d="M913 10Q876 -7 833 -7T764 15T736 95L708 601L533 46Q518 0 469 0Q441 1 430 12T412 47L231 602L202 98Q198 42 180 16T114 -11T30 28Q59 55 62 108L102 619Q102 625 102 632Q102 679 82 707Q154 746 236 746T351 707T410 575L490 288L568 570Q597 675 641 710T757 746T880 724Q862 694 862 650Q862 641 863 630L893 112Q895 42 913 10Z"/><glyph unicode="N" glyph-name="N" horiz-adv-x="856" d="M110 108V634Q110 686 77 703Q113 746 185 746Q273 746 326 658L602 200V634Q602 686 569 703Q605 746 660 746Q760 746 760 628V103Q760 46 779 18Q748 -11 689 -11T585 24T488 145L268 514V103Q268 49 300 32Q262 -11 210 -11T134 18T110 108Z"/><glyph unicode="O" glyph-name="O" horiz-adv-x="794" d="M414 88Q502 88 538 166Q566 229 566 324Q566 345 565 368Q558 494 513 571T380 648Q228 648 228 409Q228 208 314 127Q355 88 414 88ZM691 583T709 517T728 369T710 220T653 100T550 18T397 -11Q231 -11 149 94T66 368T148 641T397 746Q485 746 550 717T653 636Z"/><glyph unicode="P" glyph-name="P" horiz-adv-x="630" d="M293 643H236V354H293Q362 354 399 393T437 499T400 604T293 643ZM136 736H323Q326 736 329 736Q494 736 574 634Q618 578 618 499T574 365Q493 262 323 262H235V103Q235 49 268 32Q230 -11 176 -11Q78 -11 78 108V623Q78 674 44 692Q81 736 136 736Z"/><glyph unicode="Q" glyph-name="Q" horiz-adv-x="844" d="M742 -17Q769 -44 769 -86Q769 -151 707 -186Q669 -208 612 -208T495 -186T395 -131T329 -62T304 -4T316 29T368 59Q593 164 593 391Q593 495 537 569T399 643T272 581T227 417T272 264T391 205Q379 164 348 135T275 106Q197 106 134 180T70 368Q70 529 171 637T434 746Q576 746 666 658T756 420T672 157T426 -2Q504 -50 629 -50Q695 -50 742 -17Z"/><glyph unicode="R" glyph-name="R" horiz-adv-x="676" d="M236 624V389H293Q363 389 400 419T437 506T400 593T293 624H236ZM658 56Q624 -11 550 -11Q511 -11 479 9T410 88L294 277H235V103Q235 49 268 32Q230 -11 176 -11Q78 -11 78 108V623Q78 674 44 692Q81 736 136 736H302Q423 736 510 676T598 506Q598 435 559 385T454 306L572 131Q608 82 658 56Z"/><glyph unicode="S" glyph-name="S" horiz-adv-x="702" d="M643 598Q643 561 620 539T555 516T478 542Q486 558 486 583T457 629T373 649T283 629T248 576T290 514T393 459T514 401T617 320T660 208Q660 112 575 51T368 -11T162 34T78 152Q78 194 107 219T178 244T260 212Q236 190 236 159T272 107T370 86T467 111T503 177T461 251T358 310T237 365T134 438T91 540Q91 634 173 690T374 746T568 704T643 598Z"/><glyph unicode="T" glyph-name="T" horiz-adv-x="649" d="M167 736H529Q625 736 625 659Q625 632 600 601Q559 619 482 619H403V103Q403 49 436 32Q398 -11 344 -11Q246 -11 246 108V619H120Q24 619 24 696Q24 723 49 754Q90 736 167 736Z"/><glyph unicode="U" glyph-name="U" horiz-adv-x="757" d="M94 263V634Q94 685 60 703Q98 746 150 746T227 717T251 628V240Q251 174 291 140T395 106T500 140T540 240V634Q540 685 506 703Q544 746 598 746Q697 746 697 628V263Q697 134 623 62T395 -11T168 61T94 263Z"/><glyph unicode="V" glyph-name="V" horiz-adv-x="730" d="M529 720Q570 746 616 746T687 722T712 661T694 581L502 116Q470 39 445 14T365 -11Q336 -11 319 -6T287 17T264 54T240 116L59 626Q40 679 6 697Q53 746 110 746Q151 746 178 722T226 634L380 153L532 584Q551 642 551 670T529 720Z"/><glyph unicode="W" glyph-name="W" horiz-adv-x="1048" d="M880 656Q880 697 858 719Q895 746 946 746Q1031 746 1031 655Q1031 641 1025 605L902 120Q876 -11 774 -11Q670 -11 642 120L539 515L432 120Q416 47 385 18T299 -11T215 18T170 120L54 616Q38 684 6 704Q47 746 99 746T179 720T220 626L306 157L440 652Q455 704 481 725T551 746Q642 746 664 652L781 149L876 619Q880 639 880 656Z"/><glyph unicode="X" glyph-name="X" horiz-adv-x="674" d="M654 39T626 14T559 -11T494 5T438 67L332 233L211 60Q185 23 160 6T97 -11T35 15T10 88Q34 88 49 96T80 126L250 360L108 583Q64 653 10 653Q33 746 118 746Q154 746 181 729T236 668L361 473L462 616Q485 647 485 673T458 721Q505 746 552 746T626 723T653 655T607 552L442 345L566 152Q610 83 665 83Q654 39 626 14Z"/><glyph unicode="Y" glyph-name="Y" horiz-adv-x="655" d="M425 10Q388 -7 345 -7T277 23T252 112L253 319L68 623Q43 663 6 666Q32 746 107 746Q145 746 172 722T229 649L344 460L456 605Q482 639 482 668T458 722Q506 746 548 746T619 724T647 662T610 576L409 320L408 95Q408 41 425 10Z"/><glyph unicode="Z" glyph-name="Z" horiz-adv-x="677" d="M638 100Q638 0 476 0H192Q123 0 77 36T30 132Q30 171 47 201T102 266L482 609Q338 582 204 582Q42 582 42 682Q42 719 66 750Q114 736 199 736H473Q542 736 588 700T635 604Q635 566 618 536T563 469L180 123L490 144Q566 150 613 174Q638 144 638 100Z"/><glyph unicode="[" glyph-name="bracketleft" horiz-adv-x="452" d="M197 -76H298Q410 -76 410 -152Q410 -168 404 -180H187Q112 -180 79 -147Q64 -132 52 -101T40 -26V1051H298Q410 1051 410 974Q410 959 404 947H197V-76Z"/><glyph unicode="\" glyph-name="backslash" horiz-adv-x="631" d="M137 1052Q194 1052 224 962Q293 768 415 413T578 -58Q600 -118 617 -132Q591 -155 559 -155Q504 -155 470 -64Q448 -1 345 298T115 959Q96 1017 77 1031Q102 1052 137 1052Z"/><glyph unicode="]" glyph-name="bracketright" horiz-adv-x="452" d="M256 947H155Q42 947 42 1024Q42 1033 48 1051H265Q341 1051 374 1018Q389 1003 401 972T413 898V-180H155Q42 -180 42 -103Q42 -94 48 -76H256V947Z"/><glyph unicode="^" glyph-name="asciicircum" horiz-adv-x="734" d="M580 218Q524 218 475 322L362 571L187 235Q150 235 120 257T90 319T118 406L271 677Q312 748 362 748Q388 748 405 731T443 671L644 244Q610 218 580 218Z"/><glyph unicode="_" glyph-name="underscore" d="M145 -66H613Q619 -76 619 -101T607 -147T581 -178T542 -194Q515 -200 474 -200H8Q0 -181 0 -159T12 -116T38 -87T76 -72Q104 -66 145 -66Z"/><glyph unicode="`" glyph-name="grave" horiz-adv-x="276" d="M252 666Q241 670 223 670T178 649L97 587Q78 570 54 570Q25 570 12 595L67 689Q98 742 126 763T195 785T256 748Q265 731 265 711T252 666Z"/><glyph unicode="a" glyph-name="a" horiz-adv-x="569" d="M210 137Q210 88 266 88Q307 88 340 126V223Q210 216 210 137ZM497 354V127Q497 64 551 47Q533 22 503 6T438 -11Q364 -11 346 55Q284 -11 191 -11Q122 -11 81 23T40 119Q40 195 119 240T340 288V383Q340 450 286 450Q264 450 250 437T235 401T251 359Q217 323 166 323T90 346T65 406Q65 462 133 498T293 534T441 491T497 354Z"/><glyph unicode="b" glyph-name="b" horiz-adv-x="608" d="M235 155Q235 74 304 74Q359 74 393 126T428 259T398 383T326 427Q299 427 275 410T235 362V155ZM235 665V468Q288 534 376 534T525 466T586 282Q586 145 505 67T295 -11Q188 -11 133 25T78 155V671Q78 721 44 742Q82 784 136 784Q235 784 235 665Z"/><glyph unicode="c" glyph-name="c" horiz-adv-x="523" d="M487 415Q487 378 464 358T403 337T335 360Q338 372 338 392T327 428T295 444Q256 444 228 391T199 260T233 140T324 98Q407 98 463 161Q486 152 486 119Q486 68 430 29T295 -11Q178 -11 113 56T48 241T124 446T319 534Q386 534 436 502T487 415Z"/><glyph unicode="d" glyph-name="d" horiz-adv-x="601" d="M372 422Q349 448 304 448T226 399T192 262Q192 88 299 88Q346 88 372 127V422ZM529 665V103Q529 49 562 32Q524 -11 470 -11Q403 -11 382 43Q360 18 326 4T258 -11Q159 -11 95 58T30 247T103 451T300 534Q335 534 372 526V671Q372 721 338 742Q376 784 430 784Q529 784 529 665Z"/><glyph unicode="e" glyph-name="e" horiz-adv-x="534" d="M330 333T339 342T348 379T333 428T290 451T239 417T207 318L312 331Q330 333 339 342ZM329 98Q412 98 468 161Q491 151 491 119Q491 71 434 30T300 -11Q181 -11 115 54T48 240T121 448T306 534Q392 534 448 479T504 352Q504 297 478 273T389 247L204 242Q211 98 329 98Z"/><glyph unicode="f" glyph-name="f" horiz-adv-x="408" d="M112 485V610Q112 691 161 737T292 784Q351 784 386 756T422 690T391 646Q360 680 324 680Q269 680 269 606V485H391Q398 477 398 464Q398 435 371 412T286 389H269V-90Q269 -181 230 -224T127 -268Q31 -268 6 -178Q68 -178 90 -152T112 -64V390Q25 396 25 443Q25 472 47 487Q89 485 112 485Z"/><glyph unicode="g" glyph-name="g" horiz-adv-x="565" d="M283 194Q337 194 337 301Q337 315 336 331Q328 467 269 467Q214 467 214 360Q214 347 215 331Q223 194 283 194ZM407 -78H248Q170 -78 114 -46T58 56T140 166Q53 223 53 331Q53 423 118 478T276 534Q349 534 407 498Q411 561 439 595T506 630T567 606T589 550Q589 499 557 480Q534 497 512 497Q469 497 456 455Q498 403 498 331Q498 239 434 183T276 127Q238 127 202 138Q178 128 178 106T196 76T258 68H395Q470 68 505 32T541 -67Q541 -156 462 -212T253 -268T70 -232T16 -146Q16 -108 44 -86T113 -64Q114 -114 151 -135T270 -156T392 -141T433 -100Q433 -78 407 -78Z"/><glyph unicode="h" glyph-name="h" horiz-adv-x="636" d="M564 354V103Q564 49 596 32Q560 -11 505 -11Q407 -11 407 108V331Q407 367 390 387T340 408T278 379T235 291V103Q235 49 268 32Q230 -11 176 -11Q78 -11 78 108V671Q78 721 44 742Q82 784 136 784Q235 784 235 665V430Q262 481 309 507T419 534T523 488T564 354Z"/><glyph unicode="i" glyph-name="i" horiz-adv-x="307" d="M202 784T227 761T253 699T221 628T146 596T79 620T53 685T88 754T163 784ZM235 415V103Q235 49 268 32Q230 -11 176 -11Q78 -11 78 108V421Q78 473 44 491Q82 534 134 534T211 505T235 415Z"/><glyph unicode="j" glyph-name="j" horiz-adv-x="304" d="M235 415V-90Q235 -181 196 -224T94 -268Q-1 -268 -28 -178Q34 -178 56 -152T78 -64V421Q78 473 44 492Q82 534 134 534T211 505T235 415ZM202 784T227 761T253 699T221 628T146 596T79 620T53 685T88 754T163 784Z"/><glyph unicode="k" glyph-name="k" horiz-adv-x="637" d="M235 665V328Q421 415 421 534Q488 534 529 507T570 432T516 346T344 274Q441 176 488 149T593 122Q593 59 563 24T480 -11T372 42T235 227V103Q235 49 268 32Q230 -11 176 -11Q78 -11 78 108V671Q78 721 44 742Q82 784 136 784Q235 784 235 665Z"/><glyph unicode="l" glyph-name="l" horiz-adv-x="312" d="M235 665V103Q235 49 268 32Q230 -11 176 -11Q78 -11 78 108V671Q78 721 44 742Q82 784 136 784Q235 784 235 665Z"/><glyph unicode="m" glyph-name="m" horiz-adv-x="965" d="M893 354V103Q893 49 925 32Q889 -11 834 -11Q736 -11 736 108V331Q736 367 719 387T669 408T607 380T564 295V103Q564 49 596 32Q560 -11 505 -11Q407 -11 407 108V331Q407 367 390 387T340 408T278 379T235 291V103Q235 49 268 32Q230 -11 176 -11Q78 -11 78 108V421Q78 473 44 491Q82 534 133 534T208 509T235 430Q262 481 309 507T412 534T506 504T557 417Q583 474 633 504T747 534T852 488T893 354Z"/><glyph unicode="n" glyph-name="n" horiz-adv-x="636" d="M564 354V103Q564 49 596 32Q560 -11 505 -11Q407 -11 407 108V331Q407 367 390 387T340 408T278 379T235 291V103Q235 49 268 32Q230 -11 176 -11Q78 -11 78 108V421Q78 473 44 491Q82 534 133 534T208 509T235 430Q262 481 309 507T419 534T523 488T564 354Z"/><glyph unicode="o" glyph-name="o" horiz-adv-x="610" d="M292 458Q206 458 206 308Q206 286 208 262Q220 65 318 65Q404 65 404 216Q404 237 402 262Q388 458 292 458ZM190 534T305 534T491 464T562 262T491 60T305 -11T119 60T48 262T119 463Z"/><glyph unicode="p" glyph-name="p" horiz-adv-x="613" d="M326 80Q366 80 397 131T428 261T398 383T326 427Q299 427 275 410T235 362V126Q272 80 326 80ZM78 -149V421Q78 473 44 492Q82 534 136 534Q215 534 230 462Q284 534 375 534T526 463T586 263T514 62T348 -11Q286 -11 235 24V-154Q235 -207 268 -224Q231 -268 176 -268Q78 -268 78 -149Z"/><glyph unicode="q" glyph-name="q" horiz-adv-x="581" d="M372 374Q372 410 350 429T300 448Q254 448 223 399T192 262T218 132T287 88Q343 88 372 135V374ZM529 534V-154Q529 -207 562 -224Q525 -268 470 -268Q372 -268 372 -149V37Q322 -11 253 -11Q162 -11 96 59T30 244Q30 319 59 383T149 491T293 534Q350 534 397 497Q425 534 490 534H529Z"/><glyph unicode="r" glyph-name="r" horiz-adv-x="493" d="M78 108V421Q78 473 44 491Q82 534 136 534Q225 534 234 438Q274 534 367 534Q414 534 444 506T475 431T452 357T380 329Q374 329 354 331Q358 349 358 354Q358 379 344 393T308 408Q254 408 235 326V103Q235 49 268 32Q230 -11 176 -11Q78 -11 78 108Z"/><glyph unicode="s" glyph-name="s" horiz-adv-x="526" d="M474 421Q474 388 455 370T401 352T334 376Q347 417 322 438Q306 451 279 451T235 440T218 405T247 362T317 324T399 286T469 232T498 157Q498 83 429 36T264 -11T102 24Q36 61 36 116Q36 149 61 170T121 192Q176 192 199 158Q182 144 182 121T204 86T262 73T319 87T341 125T312 168T242 206T160 245T90 299T61 374Q61 439 124 486T273 534T417 502T474 421Z"/><glyph unicode="t" glyph-name="t" horiz-adv-x="434" d="M240 427V157Q240 94 289 94Q343 94 389 143Q403 143 412 132T422 101Q422 60 372 25T249 -11T129 26T83 139V427Q47 428 29 444T11 486T32 526Q56 523 83 523V553Q83 605 49 623Q87 666 139 666T216 637T240 547V523H391Q398 515 398 503Q398 472 365 450T248 427H240Z"/><glyph unicode="u" glyph-name="u" horiz-adv-x="636" d="M564 415V103Q564 49 596 32Q560 -11 505 -11Q424 -11 410 70Q359 -11 269 -11T128 35T78 169V421Q78 473 44 491Q82 534 134 534T211 505T235 415V185Q235 108 313 108Q380 108 407 184V421Q407 473 373 491Q411 534 463 534T540 505T564 415Z"/><glyph unicode="v" glyph-name="v" horiz-adv-x="580" d="M391 406Q402 439 402 466T389 516Q423 534 465 534T532 513T556 461T539 386L434 114Q409 47 380 20T292 -7T203 18T152 114L66 407Q50 458 24 476Q36 501 63 517T120 534Q209 534 228 436L294 97L391 406Z"/><glyph unicode="w" glyph-name="w" horiz-adv-x="913" d="M739 426Q745 457 745 481T737 518Q768 534 812 534T877 496Q889 475 889 453T883 409L797 115Q776 44 748 17T662 -11T573 19T528 115L480 327L430 115Q413 46 382 18T288 -11T196 16T146 115L71 394Q61 430 51 448T24 476Q61 534 127 534Q210 534 230 421L287 112L362 430Q376 489 405 511T488 534T572 511T614 430L677 120L739 426Z"/><glyph unicode="x" glyph-name="x" horiz-adv-x="558" d="M438 -11Q374 -11 325 58L268 138L214 47Q179 -11 109 -11Q77 -11 52 8T19 56Q48 63 76 102L182 259L60 432Q39 463 19 466Q23 497 49 515T110 534Q175 534 223 466L284 379L343 476Q378 534 448 534Q480 534 505 515T538 467Q508 460 481 421L370 258L487 91Q510 60 529 58Q525 27 500 8T438 -11Z"/><glyph unicode="y" glyph-name="y" horiz-adv-x="617" d="M448 452T448 476T437 516Q465 534 502 534Q555 534 581 494Q594 474 594 447T581 385L390 -132Q340 -268 232 -268Q184 -268 153 -243T122 -184T140 -120Q167 -142 192 -142T236 -128T265 -86L291 -10Q288 -10 286 -10Q248 -10 214 19T163 104L68 408Q57 444 49 461T24 491Q69 534 116 534T189 507T230 421L322 83L437 422Q448 452 448 476Z"/><glyph unicode="z" glyph-name="z" horiz-adv-x="500" d="M440 145Q458 124 458 85T431 23T342 0H175Q110 0 76 30T42 107Q42 135 53 156T94 203L328 410Q244 396 177 396T82 419T54 475T71 530Q116 523 167 523H331Q396 523 430 493T464 416Q464 389 453 368T412 320L174 110L342 119Q406 122 440 145Z"/><glyph unicode="{" glyph-name="braceleft" horiz-adv-x="588" d="M328 913Q328 878 341 763T355 605T340 526T302 470Q262 436 238 433Q262 430 302 396Q324 377 339 341T355 262T342 104T328 -47Q328 -105 357 -142T436 -192Q424 -210 393 -221T338 -232Q271 -232 223 -180T175 -30Q175 26 190 129T205 274T192 345T163 385T134 409T120 433T133 457T162 481T191 522T205 592T190 737T175 896Q175 995 223 1046T338 1098Q363 1098 393 1087T436 1058Q386 1046 357 1009T328 913Z"/><glyph unicode="|" glyph-name="bar" horiz-adv-x="377" d="M268 868V-113Q268 -167 300 -184Q262 -227 210 -227T134 -198T110 -108V874Q110 926 77 943Q113 986 168 986Q268 986 268 868Z"/><glyph unicode="}" glyph-name="braceright" horiz-adv-x="588" d="M380 896Q380 841 365 738T350 593T363 522T393 482T422 458T436 433T423 409T393 386T364 345T350 274T365 129T380 -30Q380 -129 332 -180T217 -232Q193 -232 163 -221T120 -192Q170 -180 199 -143T228 -47Q228 -12 214 103T200 261T215 340T252 396Q293 430 318 433Q293 436 252 470Q231 489 216 526T200 605T214 762T228 913Q228 971 199 1008T120 1058Q132 1076 162 1087T217 1098Q285 1098 332 1047T380 896Z"/><glyph unicode="~" glyph-name="asciitilde" horiz-adv-x="697" d="M520 420Q547 420 563 435T582 476Q625 458 625 407T586 322T488 287T325 321T185 356Q119 356 115 300Q72 313 72 366T111 455T202 490T360 455T520 420Z"/><glyph unicode="" glyph-name="nbsp" horiz-adv-x="280"/><glyph unicode="&#xA1;" glyph-name="exclamdown" horiz-adv-x="349" d="M272 -98Q277 -123 277 -155T256 -220Q226 -266 175 -266T94 -220Q71 -186 71 -135Q71 -117 74 -98L114 192Q126 284 182 284Q206 284 221 270Q218 248 218 216T227 137L272 -98ZM136 344T116 364T95 420T125 487T192 518T248 497T269 441T238 375T171 344Z"/><glyph unicode="&#xA2;" glyph-name="cent" horiz-adv-x="523" d="M390 559V523Q434 510 460 482T487 416T464 358T403 337T335 360Q338 372 338 392T327 428T295 444Q256 444 228 391T199 260T233 140T324 98Q407 98 463 161Q486 152 486 116T450 45T358 -3V-41Q358 -95 390 -112Q352 -155 300 -155T224 -126T200 -36V3Q127 27 88 88T48 242T98 412T233 520V565Q233 617 199 635Q237 678 289 678T366 649T390 559Z"/><glyph unicode="&#xA3;" glyph-name="sterling" horiz-adv-x="668" d="M126 422H162Q161 440 161 491Q161 604 241 675T436 746Q517 746 558 716T600 643T568 573T486 544Q477 588 452 617T396 646Q337 646 337 529Q337 462 341 422H506Q511 418 511 404Q511 341 421 341H344V288Q344 200 289 162Q310 159 384 143T509 127Q588 127 630 164Q644 138 644 107Q644 60 606 25T503 -11T343 8T210 28Q121 28 76 -10Q61 17 61 50T86 114T154 157Q168 187 168 236T166 341H41Q36 346 36 362Q36 422 126 422Z"/><glyph unicode="&#xA4;" glyph-name="currency" horiz-adv-x="720" d="M471 341Q471 522 349 522Q250 522 250 396Q250 385 251 372Q261 222 371 222Q471 222 471 341ZM572 491Q600 440 600 373T573 254L666 162Q650 103 593 103Q547 103 508 143L482 170Q431 145 360 145T238 170L212 143Q173 103 127 103Q70 103 54 162L147 254Q120 305 120 372T148 491L54 583Q69 642 127 642Q173 642 212 602L239 575Q290 600 360 600T481 575L508 602Q547 642 593 642Q651 642 666 583L572 491Z"/><glyph unicode="&#xA5;" glyph-name="yen" horiz-adv-x="701" d="M456 605Q482 639 482 668T458 722Q506 746 548 746T619 724T647 662T610 576L472 400H601Q606 395 606 382Q606 318 516 318H409V242H601Q606 238 606 224Q606 161 516 161H408V95Q408 41 425 10Q388 -7 345 -7T277 23T252 112V161H76Q71 166 71 182Q71 242 161 242H253V318H76Q71 325 71 340Q71 400 161 400H204L68 623Q43 663 6 666Q32 746 107 746Q145 746 172 722T229 649L344 460L456 605Z"/><glyph unicode="&#xA6;" glyph-name="brokenbar" horiz-adv-x="377" d="M268 220V-17Q268 -71 300 -88Q262 -131 210 -131T134 -102T110 -12V226Q110 278 77 295Q113 338 168 338Q268 338 268 220ZM268 784V547Q268 493 300 476Q262 433 210 433T134 462T110 552V790Q110 842 77 859Q113 902 168 902Q268 902 268 784Z"/><glyph unicode="&#xA7;" glyph-name="section" horiz-adv-x="702" d="M333 56Q366 36 405 17T485 -24T558 -72T611 -137T632 -224Q632 -321 555 -382T368 -443T182 -398T106 -280Q106 -236 136 -212T213 -187T290 -220Q269 -243 269 -274T296 -325T378 -346T462 -321T491 -260T453 -196T359 -141T250 -83T157 -2T118 116T161 230T266 276Q294 276 323 264Q259 222 259 161T333 56ZM618 598Q618 561 596 539T545 516Q486 516 454 542Q461 563 461 586T434 629T359 649Q259 649 259 581Q259 556 297 530T390 478T500 419T593 335T632 211T586 98T480 56Q450 56 427 68Q491 110 491 173Q491 235 417 280Q384 300 345 319T265 360T192 405Q118 459 118 540Q118 635 191 690T373 746T549 704T618 598Z"/><glyph unicode="&#xA8;" glyph-name="dieresis" horiz-adv-x="394" d="M139 755T158 735T178 682T149 619T86 589T32 609T12 662T42 725T105 755ZM343 755T362 735T382 682T353 619T290 589T236 609T216 662T246 725T309 755Z"/><glyph unicode="&#xA9;" glyph-name="copyright" horiz-adv-x="869" d="M610 508Q610 475 590 457T535 439T476 460Q479 471 479 488T469 519T440 534Q406 534 381 488T356 372T386 266T467 229Q541 229 589 284Q608 278 608 247Q608 202 559 168T440 133Q337 133 280 192T223 354T290 535T462 613Q521 613 565 585T610 508ZM128 509T128 367T211 131T434 36T656 130T740 367T657 605T435 700T212 605ZM591 748T694 642T797 368T694 95T434 -11T175 94T72 367T175 641T434 748Z"/><glyph unicode="&#xAA;" glyph-name="ordfeminine" horiz-adv-x="569" d="M210 137Q210 88 266 88Q307 88 340 126V223Q210 216 210 137ZM497 354V127Q497 64 551 47Q533 22 503 6T438 -11Q364 -11 346 55Q284 -11 191 -11Q122 -11 81 23T40 119Q40 195 119 240T340 288V383Q340 450 286 450Q264 450 250 437T235 401T251 359Q217 323 166 323T90 346T65 406Q65 462 133 498T293 534T441 491T497 354Z"/><glyph unicode="&#xAB;" glyph-name="guillemotleft" horiz-adv-x="586" d="M234 533T208 487T181 405T208 321T310 175Q307 168 298 161T276 154Q242 154 184 200T81 308T36 404T81 501T184 608T276 655Q288 655 297 648T310 634Q234 533 208 487ZM474 533T448 487T421 405T448 321T550 175Q547 168 538 161T516 154Q482 154 424 200T321 308T276 404T321 501T424 608T516 655Q528 655 537 648T550 634Q474 533 448 487Z"/><glyph unicode="&#xAC;" glyph-name="logicalnot" horiz-adv-x="844" d="M751 400V310Q751 256 784 239Q746 196 694 196T618 225T594 314V359Q594 377 586 383T558 390H56Q48 409 48 426Q48 504 158 504H623Q694 504 722 480T751 400Z"/><glyph unicode="&#xAE;" glyph-name="registered" horiz-adv-x="680" d="M304 664V559H329Q392 559 392 611T329 664H304ZM491 410Q476 380 438 380T373 425L321 510H302V432Q302 409 317 400Q299 380 272 380Q226 380 226 434V664Q226 686 211 695Q228 714 251 714H342Q395 714 434 687T473 611Q473 544 403 520L454 444Q464 430 491 410ZM235 307T340 307T508 375T572 544T509 713T341 781T172 713T108 544T171 376ZM217 824T340 824T541 747T620 544T542 342T340 264T139 341T60 544T138 746Z"/><glyph unicode="&#xAF;" glyph-name="overscore" horiz-adv-x="422" d="M88 694H402Q410 684 410 664T390 629T335 614H20Q12 627 12 645T33 679T88 694Z"/><glyph unicode="&#xB0;" glyph-name="degree" horiz-adv-x="1000" d="M181 896T263 896T396 848T448 720T396 592T263 542T130 591T78 720T129 847ZM190 685T209 663T262 641T316 663T336 720T316 777T263 799T210 777T190 720Z"/><glyph unicode="&#xB1;" glyph-name="plusminus" horiz-adv-x="726" d="M301 547L296 643V647Q296 773 394 773Q412 773 430 764L426 547L670 551Q676 537 676 520Q676 419 545 419Q536 419 426 422Q430 336 430 329Q430 274 407 236T329 197Q307 197 301 203L305 422L60 419Q52 433 52 455Q52 551 181 551Q191 551 301 547ZM180 157H684Q690 146 690 122T679 77T653 46T614 30Q586 24 546 24H44Q36 43 36 63T43 100T64 128T92 144T124 154Q152 157 180 157Z"/><glyph unicode="&#xB2;" glyph-name="twosuperior" horiz-adv-x="434" d="M283 313H106Q66 313 48 334Q36 347 36 361T41 390Q195 476 235 548Q254 582 254 617Q254 690 197 690Q178 690 168 680T158 655Q158 628 197 616Q177 581 124 581Q92 581 68 597T44 643Q44 686 93 716T211 746T323 709T367 613T308 494T137 392Q218 402 281 402Q386 402 386 344Q386 326 371 305Q338 313 283 313Z"/><glyph unicode="&#xB3;" glyph-name="threesuperior" horiz-adv-x="382" d="M331 653Q331 624 310 602T254 569Q296 556 324 524T352 451Q352 398 291 353T170 307T70 331T30 389T51 445T85 468Q112 397 188 397Q220 397 239 410T258 447T230 490T144 511Q129 511 115 509Q107 516 107 528T124 553T161 573T199 595T216 629T198 659T149 671T85 649Q64 655 64 682T101 728T197 746T294 721T331 653Z"/><glyph unicode="&#xB4;" glyph-name="acute" horiz-adv-x="276" d="M264 595Q251 570 225 570T179 587L98 649Q71 670 53 670T24 666Q11 690 11 710T20 748Q39 785 80 785T150 764T209 689L264 595Z"/><glyph unicode="&#xB5;" glyph-name="uni00B5" horiz-adv-x="636" d="M564 415V103Q564 49 596 32Q560 -11 505 -11Q423 -11 410 70Q360 -11 280 -11Q258 -11 235 -4V-80Q235 -134 268 -151Q230 -194 178 -194T102 -165T78 -76V421Q78 473 44 491Q82 534 134 534T211 505T235 415V185Q235 108 313 108Q380 108 407 184V421Q407 473 373 491Q411 534 463 534T540 505T564 415Z"/><glyph unicode="&#xB6;" glyph-name="paragraph" horiz-adv-x="720" d="M253 736H601Q583 677 583 584V0Q566 -6 545 -6T505 11T487 65V556Q487 594 494 648H439Q396 648 396 600V0Q380 -6 358 -6T318 11T300 65V276H253Q156 276 102 341T48 506T102 671T253 736Z"/><glyph unicode="&#xB7;" glyph-name="middot" horiz-adv-x="391" d="M251 479T273 456T295 394T262 321T189 287T126 310T103 372T137 445T211 479Z"/><glyph unicode="&#xB8;" glyph-name="cedilla" horiz-adv-x="389" d="M238 -62Q365 -62 365 -154Q365 -202 312 -234T183 -266T60 -239T13 -175Q13 -150 35 -137Q54 -167 89 -182T160 -198Q233 -198 233 -154T170 -109H152Q127 -109 127 -91Q127 -83 131 -72L163 10H264L237 -62H238Z"/><glyph unicode="&#xB9;" glyph-name="onesuperior" horiz-adv-x="251" d="M194 684V373Q194 340 215 332Q190 307 156 307Q91 307 91 376V659Q91 677 74 677T38 664Q24 669 24 687T54 726T122 746Q194 746 194 684Z"/><glyph unicode="&#xBA;" glyph-name="ordmasculine" horiz-adv-x="406" d="M257 563Q257 692 196 692Q149 692 149 611Q149 600 150 588Q157 484 210 484Q257 484 257 563ZM128 746T203 746T324 705T370 588T324 472T203 431T82 471T36 588T82 705Z"/><glyph unicode="&#xBB;" glyph-name="guillemotright" horiz-adv-x="586" d="M459 562T504 501T550 405T505 308T401 201T310 154Q298 154 288 161T276 175Q350 273 377 320T404 404T378 487T276 634Q278 640 288 647T310 655Q343 655 401 609ZM219 562T264 501T310 405T265 308T161 201T70 154Q58 154 48 161T36 175Q110 273 137 320T164 404T138 487T36 634Q38 640 48 647T70 655Q103 655 161 609Z"/><glyph unicode="&#xBC;" glyph-name="onequarter" horiz-adv-x="689" d="M97 376V659Q97 677 80 677T44 664Q30 669 30 687T60 726T128 746Q200 746 200 684V373Q200 340 221 332Q196 307 162 307Q97 307 97 376ZM515 710Q537 746 557 746T593 725Q583 720 568 690L151 30Q146 21 138 10T126 -3Q118 -8 109 -8Q86 -8 73 14Q83 22 98 48L515 710ZM432 166H503V312Q503 322 496 322Q482 322 445 265T408 179Q408 166 432 166ZM622 103H608V60Q608 27 629 19Q604 -6 570 -6Q503 -6 503 62V103H384Q325 103 325 148Q325 180 362 248T454 374T550 433Q608 433 608 364V166H629Q661 166 674 176Q686 164 686 147T669 117T622 103Z"/><glyph unicode="&#xBD;" glyph-name="onehalf" horiz-adv-x="770" d="M97 376V659Q97 677 80 677T44 664Q30 669 30 687T60 726T128 746Q200 746 200 684V373Q200 340 221 332Q196 307 162 307Q97 307 97 376ZM515 710Q537 746 557 746T593 725Q583 720 568 690L151 30Q146 21 138 10T126 -3Q118 -8 109 -8Q86 -8 73 14Q83 22 98 48L515 710ZM643 0H466Q426 0 408 21Q396 34 396 48T401 77Q553 160 595 235Q614 269 614 304Q614 377 557 377Q538 377 528 367T518 342Q518 316 557 302Q537 268 484 268Q452 268 428 284T404 330Q404 373 453 403T571 433T683 396T727 300T669 183T500 79Q580 89 641 89Q746 89 746 31Q746 11 731 -8Q698 0 643 0Z"/><glyph unicode="&#xBE;" glyph-name="threequarters" horiz-adv-x="731" d="M352 451Q352 398 291 353T170 307T70 331T30 389T51 445T85 468Q112 397 188 397Q220 397 239 410T258 447T230 490T144 511Q129 511 115 509Q107 516 107 528T124 553T161 573T199 595T216 629T198 659T149 671T85 649Q64 655 64 682T101 728T197 746T294 721T331 653Q331 624 310 602T254 569Q296 556 324 524T352 451ZM595 708Q621 746 646 746T684 721Q665 715 648 690L197 30Q171 -8 146 -8T108 17Q127 23 144 48L595 708ZM479 166H550V312Q550 322 542 322Q528 322 492 265T455 179Q455 166 479 166ZM668 103H655V60Q655 27 676 19Q651 -6 617 -6Q550 -6 550 62V103H431Q372 103 372 148Q372 180 409 248T500 374T596 433Q655 433 655 364V166H676Q708 166 721 176Q733 164 733 147T715 117T668 103Z"/><glyph unicode="&#xBF;" glyph-name="questiondown" horiz-adv-x="587" d="M220 114T238 140T257 187T243 224T204 245Q207 273 229 290T290 308T359 279T390 200Q390 142 336 86Q314 63 292 38Q238 -23 238 -97Q238 -138 263 -162T325 -187Q397 -187 397 -130Q397 -106 382 -87T344 -60Q344 -46 375 -21T451 5T526 -26T556 -103Q556 -176 483 -221T311 -266T145 -221T78 -100T142 38Q168 65 194 89ZM247 358T225 378T202 433T235 498T308 528T371 508T394 453T360 388T286 358Z"/><glyph unicode="&#xC0;" glyph-name="Agrave" horiz-adv-x="742" d="M329 808L384 902Q415 955 443 976T512 998T573 960Q582 943 582 923T569 879Q558 883 540 883T495 862L414 800Q395 783 369 783T329 808ZM288 236H444L371 493L288 236ZM710 20T682 5T614 -11T550 8T505 78L481 140H254L229 70Q201 -11 134 -11Q102 -11 74 3T36 40Q53 47 64 63T90 115L295 644Q277 683 256 698Q287 746 352 746Q402 746 425 719T474 622L653 138Q679 67 722 46Q710 20 682 5Z"/><glyph unicode="&#xC1;" glyph-name="Aacute" horiz-adv-x="742" d="M449 808Q436 783 410 783T364 800L283 862Q256 883 238 883T209 879Q196 903 196 923T205 960Q224 998 265 998T335 977T394 902L449 808ZM288 236H444L371 493L288 236ZM710 20T682 5T614 -11T550 8T505 78L481 140H254L229 70Q201 -11 134 -11Q102 -11 74 3T36 40Q53 47 64 63T90 115L295 644Q277 683 256 698Q287 746 352 746Q402 746 425 719T474 622L653 138Q679 67 722 46Q710 20 682 5Z"/><glyph unicode="&#xC2;" glyph-name="Acircumflex" horiz-adv-x="742" d="M276 800Q258 783 231 783T191 808L264 915Q292 954 313 971T371 989T428 972T478 915L551 808Q539 783 512 783T466 800L371 882L276 800ZM288 236H444L371 493L288 236ZM710 20T682 5T614 -11T550 8T505 78L481 140H254L229 70Q201 -11 134 -11Q102 -11 74 3T36 40Q53 47 64 63T90 115L295 644Q277 683 256 698Q287 746 352 746Q402 746 425 719T474 622L653 138Q679 67 722 46Q710 20 682 5Z"/><glyph unicode="&#xC3;" glyph-name="Atilde" horiz-adv-x="742" d="M235 813Q217 813 203 827T189 871Q189 917 224 949T303 981T395 953T467 925T508 940T525 983Q546 982 558 966T571 926Q571 878 535 847T455 815T359 843T287 872T251 857T235 813ZM288 236H444L371 493L288 236ZM710 20T682 5T614 -11T550 8T505 78L481 140H254L229 70Q201 -11 134 -11Q102 -11 74 3T36 40Q53 47 64 63T90 115L295 644Q277 683 256 698Q287 746 352 746Q402 746 425 719T474 622L653 138Q679 67 722 46Q710 20 682 5Z"/><glyph unicode="&#xC4;" glyph-name="Adieresis" horiz-adv-x="742" d="M556 860T527 831T464 802T410 822T390 875T420 938T483 968T536 948T556 894ZM352 860T323 831T260 802T206 822T186 875T216 938T279 968T332 948T352 894ZM288 236H444L371 493L288 236ZM710 20T682 5T614 -11T550 8T505 78L481 140H254L229 70Q201 -11 134 -11Q102 -11 74 3T36 40Q53 47 64 63T90 115L295 644Q277 683 256 698Q287 746 352 746Q402 746 425 719T474 622L653 138Q679 67 722 46Q710 20 682 5Z"/><glyph unicode="&#xC5;" glyph-name="Aring" horiz-adv-x="742" d="M329 908Q329 836 377 836Q412 836 412 883Q412 888 412 893Q406 951 365 951Q329 951 329 908ZM420 799T371 799T290 823T257 893T289 963T371 988T452 964T485 894T453 824ZM288 236H444L371 493L288 236ZM710 20T682 5T614 -11T550 8T505 78L481 140H254L229 70Q201 -11 134 -11Q102 -11 74 3T36 40Q53 47 64 63T90 115L295 644Q277 683 256 698Q287 746 352 746Q402 746 425 719T474 622L653 138Q679 67 722 46Q710 20 682 5Z"/><glyph unicode="&#xC6;" glyph-name="AE" horiz-adv-x="1075" d="M476 293V606L325 293H476ZM680 128H857Q928 128 983 168Q1015 141 1015 97T983 27T887 0H661Q476 0 476 145V164H263L220 74Q181 -6 116 -6Q83 -6 54 9T12 47Q30 56 42 70T72 120L335 634Q363 689 398 712T496 736H868Q947 736 981 716T1015 655T983 588Q936 607 857 607H634V457H772Q852 457 885 440T919 383T887 317Q851 329 761 329H634V173Q634 128 680 128Z"/><glyph unicode="&#xC7;" glyph-name="Ccedilla" horiz-adv-x="738" d="M62 361Q62 536 157 641T415 746Q520 746 595 704T670 599Q670 554 638 533T561 511T482 532Q486 552 486 577T472 625Q450 658 401 658Q329 658 278 584T227 377T282 187T436 130Q496 130 550 158T637 226Q672 211 672 164Q672 106 596 50T411 -11L392 -62H393Q520 -62 520 -154Q520 -202 467 -234T338 -266T215 -239T168 -175Q168 -150 190 -137Q209 -167 244 -182T316 -198Q388 -198 388 -154T325 -109H307Q282 -109 282 -91Q282 -83 286 -72L313 -3Q193 21 128 115T62 361Z"/><glyph unicode="&#xC8;" glyph-name="Egrave" horiz-adv-x="716" d="M341 808L396 902Q427 955 455 976T524 998T585 960Q594 943 594 923T581 879Q570 883 552 883T507 862L426 800Q407 783 381 783T341 808ZM337 128H498Q569 128 624 168Q656 141 656 97T624 27T528 0H311Q211 0 165 43T118 179V623Q118 674 84 692Q121 736 175 736H509Q588 736 622 716T656 655T624 588Q576 607 498 607H275V457H413Q493 457 526 440T560 383T528 317Q492 329 402 329H275V199Q275 128 337 128Z"/><glyph unicode="&#xC9;" glyph-name="Eacute" horiz-adv-x="716" d="M461 808Q448 783 422 783T376 800L295 862Q268 883 250 883T221 879Q208 903 208 923T217 960Q236 998 277 998T347 977T406 902L461 808ZM337 128H498Q569 128 624 168Q656 141 656 97T624 27T528 0H311Q211 0 165 43T118 179V623Q118 674 84 692Q121 736 175 736H509Q588 736 622 716T656 655T624 588Q576 607 498 607H275V457H413Q493 457 526 440T560 383T528 317Q492 329 402 329H275V199Q275 128 337 128Z"/><glyph unicode="&#xCA;" glyph-name="Ecircumflex" horiz-adv-x="716" d="M288 800Q270 783 243 783T203 808L276 915Q304 954 325 971T383 989T440 972T490 915L563 808Q551 783 524 783T478 800L383 882L288 800ZM337 128H498Q569 128 624 168Q656 141 656 97T624 27T528 0H311Q211 0 165 43T118 179V623Q118 674 84 692Q121 736 175 736H509Q588 736 622 716T656 655T624 588Q576 607 498 607H275V457H413Q493 457 526 440T560 383T528 317Q492 329 402 329H275V199Q275 128 337 128Z"/><glyph unicode="&#xCB;" glyph-name="Edieresis" horiz-adv-x="716" d="M568 860T539 831T476 802T422 822T402 875T432 938T495 968T548 948T568 894ZM364 860T335 831T272 802T218 822T198 875T228 938T291 968T344 948T364 894ZM337 128H498Q569 128 624 168Q656 141 656 97T624 27T528 0H311Q211 0 165 43T118 179V623Q118 674 84 692Q121 736 175 736H509Q588 736 622 716T656 655T624 588Q576 607 498 607H275V457H413Q493 457 526 440T560 383T528 317Q492 329 402 329H275V199Q275 128 337 128Z"/><glyph unicode="&#xCC;" glyph-name="Igrave" horiz-adv-x="377" d="M232 955T260 976T329 998T390 960Q399 943 399 923T386 879Q375 883 357 883T312 862L231 800Q212 783 188 783Q159 783 146 808L201 902Q232 955 260 976ZM268 628V103Q268 49 300 32Q262 -11 210 -11T134 18T110 108V634Q110 686 77 703Q113 746 168 746Q268 746 268 628Z"/><glyph unicode="&#xCD;" glyph-name="Iacute" horiz-adv-x="377" d="M266 808Q253 783 227 783T181 800L100 862Q73 883 55 883T26 879Q13 903 13 923T22 960Q41 998 82 998T152 977T211 902L266 808ZM268 628V103Q268 49 300 32Q262 -11 210 -11T134 18T110 108V634Q110 686 77 703Q113 746 168 746Q268 746 268 628Z"/><glyph unicode="&#xCE;" glyph-name="Icircumflex" horiz-adv-x="377" d="M268 628V103Q268 49 300 32Q262 -11 210 -11T134 18T110 108V634Q110 686 77 703Q113 746 168 746Q268 746 268 628ZM368 808Q356 783 329 783T283 800L188 882L93 800Q75 783 48 783T8 808L81 915Q109 954 130 971T188 989T245 972T295 915L368 808Z"/><glyph unicode="&#xCF;" glyph-name="Idieresis" horiz-adv-x="377" d="M334 968T353 948T373 894T344 831T280 802T227 822T207 875T237 938T300 968ZM130 968T149 948T169 894T140 831T76 802T23 822T3 875T33 938T96 968ZM268 628V103Q268 49 300 32Q262 -11 210 -11T134 18T110 108V634Q110 686 77 703Q113 746 168 746Q268 746 268 628Z"/><glyph unicode="&#xD0;" glyph-name="Eth" horiz-adv-x="839" d="M262 329V158Q262 96 361 96T521 170T582 367T522 565T356 640Q310 640 262 622V410H442Q446 406 446 392Q446 329 356 329H262ZM104 410V584Q104 653 77 694Q220 746 356 746Q529 746 636 646T744 368T637 89T356 -11Q226 -11 165 31T104 169V329H0Q-5 336 -5 350Q-5 410 85 410H104Z"/><glyph unicode="&#xD1;" glyph-name="Ntilde" horiz-adv-x="856" d="M404 981T452 953T524 925T565 940T582 983Q603 982 615 966T628 926Q628 878 592 847T512 815T416 843T344 872T308 857T292 813Q274 813 260 827T246 871Q246 917 281 949T360 981ZM110 108V634Q110 686 77 703Q113 746 185 746Q273 746 326 658L602 200V634Q602 686 569 703Q605 746 660 746Q760 746 760 628V103Q760 46 779 18Q748 -11 689 -11T585 24T488 145L268 514V103Q268 49 300 32Q262 -11 210 -11T134 18T110 108Z"/><glyph unicode="&#xD2;" glyph-name="Ograve" horiz-adv-x="794" d="M441 955T469 976T538 998T599 960Q608 943 608 923T595 879Q584 883 566 883T521 862L440 800Q421 783 397 783Q368 783 355 808L410 902Q441 955 469 976ZM414 88Q502 88 538 166Q566 229 566 324Q566 345 565 368Q558 494 513 571T380 648Q228 648 228 409Q228 208 314 127Q355 88 414 88ZM691 583T709 517T728 369T710 220T653 100T550 18T397 -11Q231 -11 149 94T66 368T148 641T397 746Q485 746 550 717T653 636Z"/><glyph unicode="&#xD3;" glyph-name="Oacute" horiz-adv-x="794" d="M414 88Q502 88 538 166Q566 229 566 324Q566 345 565 368Q558 494 513 571T380 648Q228 648 228 409Q228 208 314 127Q355 88 414 88ZM691 583T709 517T728 369T710 220T653 100T550 18T397 -11Q231 -11 149 94T66 368T148 641T397 746Q485 746 550 717T653 636ZM475 808Q462 783 436 783T390 800L309 862Q282 883 264 883T235 879Q222 903 222 923T231 960Q250 998 291 998T361 977T420 902L475 808Z"/><glyph unicode="&#xD4;" glyph-name="Ocircumflex" horiz-adv-x="794" d="M302 800Q284 783 257 783T217 808L290 915Q318 954 339 971T397 989T454 972T504 915L577 808Q565 783 538 783T492 800L397 882L302 800ZM414 88Q502 88 538 166Q566 229 566 324Q566 345 565 368Q558 494 513 571T380 648Q228 648 228 409Q228 208 314 127Q355 88 414 88ZM397 746Q485 746 550 717T653 636Q728 532 728 368Q728 205 653 100Q615 47 550 18T397 -11Q231 -11 149 94T66 368T148 641T397 746Z"/><glyph unicode="&#xD5;" glyph-name="Otilde" horiz-adv-x="794" d="M373 981T421 953T493 925T534 940T551 983Q572 982 584 966T597 926Q597 878 561 847T481 815T385 843T313 872T277 857T261 813Q243 813 229 827T215 871Q215 917 250 949T329 981ZM414 88Q502 88 538 166Q566 229 566 324Q566 345 565 368Q558 494 513 571T380 648Q228 648 228 409Q228 208 314 127Q355 88 414 88ZM691 583T709 517T728 369T710 220T653 100T550 18T397 -11Q231 -11 149 94T66 368T148 641T397 746Q485 746 550 717T653 636Z"/><glyph unicode="&#xD6;" glyph-name="Odieresis" horiz-adv-x="794" d="M414 88Q502 88 538 166Q566 229 566 324Q566 345 565 368Q558 494 513 571T380 648Q228 648 228 409Q228 208 314 127Q355 88 414 88ZM691 583T709 517T728 369T710 220T653 100T550 18T397 -11Q231 -11 149 94T66 368T148 641T397 746Q485 746 550 717T653 636ZM543 968T562 948T582 894T553 831T490 802T436 822T416 875T446 938T509 968ZM339 968T358 948T378 894T349 831T286 802T232 822T212 875T242 938T305 968Z"/><glyph unicode="&#xD7;" glyph-name="multiply" horiz-adv-x="766" d="M595 128Q544 128 486 198L365 338L218 169Q182 127 151 127T103 160L312 400L86 660Q99 686 122 700T168 714Q217 714 278 644L401 503L548 672Q549 673 553 677T559 684T566 690T574 698T582 704T592 710Q604 714 613 714Q648 714 664 683L454 440L679 180Q667 155 642 142T595 128Z"/><glyph unicode="&#xD8;" glyph-name="Oslash" horiz-adv-x="832" d="M280 169Q329 89 415 89T538 166Q566 230 566 325Q566 404 553 463L280 169ZM379 649Q292 649 257 572Q228 508 228 410Q228 308 252 233L532 534Q484 649 379 649ZM728 746T761 746T800 713Q771 696 726 649L678 598Q728 507 728 369Q728 206 653 101Q615 48 550 19T397 -10Q264 -10 181 62L152 31Q114 -11 82 -11Q68 -11 57 -2T42 23Q70 38 116 86L138 109Q66 209 66 373T148 642T393 747T641 651L690 704Q728 746 761 746Z"/><glyph unicode="&#xD9;" glyph-name="Ugrave" horiz-adv-x="757" d="M435 955T463 976T532 998T593 960Q602 943 602 923T589 879Q578 883 560 883T515 862L434 800Q415 783 391 783Q362 783 349 808L404 902Q435 955 463 976ZM94 263V634Q94 685 60 703Q98 746 150 746T227 717T251 628V240Q251 174 291 140T395 106T500 140T540 240V634Q540 685 506 703Q544 746 598 746Q697 746 697 628V263Q697 134 623 62T395 -11T168 61T94 263Z"/><glyph unicode="&#xDA;" glyph-name="Uacute" horiz-adv-x="757" d="M94 263V634Q94 685 60 703Q98 746 150 746T227 717T251 628V240Q251 174 291 140T395 106T500 140T540 240V634Q540 685 506 703Q544 746 598 746Q697 746 697 628V263Q697 134 623 62T395 -11T168 61T94 263ZM469 808Q456 783 430 783T384 800L303 862Q276 883 258 883T229 879Q216 903 216 923T225 960Q244 998 285 998T355 977T414 902L469 808Z"/><glyph unicode="&#xDB;" glyph-name="Ucircumflex" horiz-adv-x="757" d="M296 800Q278 783 251 783T211 808L284 915Q312 954 333 971T391 989T448 972T498 915L571 808Q559 783 532 783T486 800L391 882L296 800ZM540 240V634Q540 685 506 703Q544 746 598 746Q697 746 697 628V263Q697 134 623 62T395 -11T168 61T94 263V634Q94 685 60 703Q98 746 150 746T227 717T251 628V240Q251 174 291 140T395 106T500 140T540 240Z"/><glyph unicode="&#xDC;" glyph-name="Udieresis" horiz-adv-x="757" d="M94 263V634Q94 685 60 703Q98 746 150 746T227 717T251 628V240Q251 174 291 140T395 106T500 140T540 240V634Q540 685 506 703Q544 746 598 746Q697 746 697 628V263Q697 134 623 62T395 -11T168 61T94 263ZM537 968T556 948T576 894T547 831T484 802T430 822T410 875T440 938T503 968ZM333 968T352 948T372 894T343 831T280 802T226 822T206 875T236 938T299 968Z"/><glyph unicode="&#xDD;" glyph-name="Yacute" horiz-adv-x="655" d="M406 808Q393 783 367 783T321 800L240 862Q213 883 195 883T166 879Q153 903 153 923T162 960Q181 998 222 998T292 977T351 902L406 808ZM425 10Q388 -7 345 -7T277 23T252 112L253 319L68 623Q43 663 6 666Q32 746 107 746Q145 746 172 722T229 649L344 460L456 605Q482 639 482 668T458 722Q506 746 548 746T619 724T647 662T610 576L409 320L408 95Q408 41 425 10Z"/><glyph unicode="&#xDE;" glyph-name="Thorn" horiz-adv-x="679" d="M268 297Q316 278 373 278T469 311T508 401T470 490T374 523T268 504V297ZM268 628V598Q326 624 407 624Q516 624 591 562T667 401T592 240T407 178Q326 178 268 204V103Q268 49 300 32Q262 -11 210 -11T134 18T110 108V634Q110 686 77 703Q113 746 168 746Q268 746 268 628Z"/><glyph unicode="&#xDF;" glyph-name="germandbls" horiz-adv-x="660" d="M624 191Q624 104 571 47T431 -11Q370 -11 339 17T307 84Q307 100 313 116Q343 94 382 94Q462 94 462 162Q462 193 450 215T415 257T360 307T311 355T295 382T308 406T337 436T366 481T380 547T359 608T304 631T247 607T223 529V103Q223 49 256 32Q218 -11 164 -11Q66 -11 66 108V529Q66 625 132 676T307 727T478 674T542 543T462 412L518 370Q624 293 624 191Z"/><glyph unicode="&#xE0;" glyph-name="agrave" horiz-adv-x="569" d="M254 595L309 689Q340 742 368 763T437 785T498 748Q507 731 507 711T494 666Q483 670 465 670T420 649L339 587Q320 570 294 570T254 595ZM210 216T210 137Q210 88 266 88Q307 88 340 126V223Q210 216 210 137ZM497 354V127Q497 64 551 47Q533 22 503 6T438 -11Q364 -11 346 55Q284 -11 191 -11Q122 -11 81 23T40 119Q40 195 119 240T340 288V383Q340 450 286 450Q264 450 250 437T235 401T251 359Q217 323 166 323T90 346T65 406Q65 462 133 498T293 534T441 491T497 354Z"/><glyph unicode="&#xE1;" glyph-name="aacute" horiz-adv-x="569" d="M374 595Q361 570 335 570T289 587L208 649Q181 670 163 670T134 666Q121 690 121 710T130 748Q149 785 190 785T260 764T319 689L374 595ZM210 216T210 137Q210 88 266 88Q307 88 340 126V223Q210 216 210 137ZM497 354V127Q497 64 551 47Q533 22 503 6T438 -11Q364 -11 346 55Q284 -11 191 -11Q122 -11 81 23T40 119Q40 195 119 240T340 288V383Q340 450 286 450Q264 450 250 437T235 401T251 359Q217 323 166 323T90 346T65 406Q65 462 133 498T293 534T441 491T497 354Z"/><glyph unicode="&#xE2;" glyph-name="acircumflex" horiz-adv-x="569" d="M201 587Q183 570 156 570T116 595L189 702Q217 741 238 758T296 776T353 759T403 702L476 595Q464 570 437 570T391 587L296 669L201 587ZM210 137Q210 88 266 88Q307 88 340 126V223Q210 216 210 137ZM497 354V127Q497 64 551 47Q533 22 503 6T438 -11Q364 -11 346 55Q284 -11 191 -11Q122 -11 81 23T40 119Q40 195 119 240T340 288V383Q340 450 286 450Q264 450 250 437T235 401T251 359Q217 323 166 323T90 346T65 406Q65 462 133 498T293 534T441 491T497 354Z"/><glyph unicode="&#xE3;" glyph-name="atilde" horiz-adv-x="569" d="M160 600Q142 600 128 614T114 658Q114 704 149 736T228 768T320 740T392 712T433 727T450 770Q471 769 483 753T496 713Q496 665 460 634T380 602T284 630T212 659T176 644T160 600ZM210 137Q210 88 266 88Q307 88 340 126V223Q210 216 210 137ZM497 354V127Q497 64 551 47Q533 22 503 6T438 -11Q364 -11 346 55Q284 -11 191 -11Q122 -11 81 23T40 119Q40 195 119 240T340 288V383Q340 450 286 450Q264 450 250 437T235 401T251 359Q217 323 166 323T90 346T65 406Q65 462 133 498T293 534T441 491T497 354Z"/><glyph unicode="&#xE4;" glyph-name="adieresis" horiz-adv-x="569" d="M481 648T452 619T388 589T335 609T315 662T345 725T408 755T461 735T481 682ZM277 648T248 619T184 589T131 609T111 662T141 725T204 755T257 735T277 682ZM210 137Q210 88 266 88Q307 88 340 126V223Q210 216 210 137ZM497 354V127Q497 64 551 47Q533 22 503 6T438 -11Q364 -11 346 55Q284 -11 191 -11Q122 -11 81 23T40 119Q40 195 119 240T340 288V383Q340 450 286 450Q264 450 250 437T235 401T251 359Q217 323 166 323T90 346T65 406Q65 462 133 498T293 534T441 491T497 354Z"/><glyph unicode="&#xE5;" glyph-name="aring" horiz-adv-x="569" d="M254 695Q254 623 302 623Q337 623 337 670Q337 675 337 680Q331 738 290 738Q254 738 254 695ZM345 586T296 586T215 610T182 680T214 750T296 775T377 751T410 681T378 611ZM210 137Q210 88 266 88Q307 88 340 126V223Q210 216 210 137ZM497 354V127Q497 64 551 47Q533 22 503 6T438 -11Q364 -11 346 55Q284 -11 191 -11Q122 -11 81 23T40 119Q40 195 119 240T340 288V383Q340 450 286 450Q264 450 250 437T235 401T251 359Q217 323 166 323T90 346T65 406Q65 462 133 498T293 534T441 491T497 354Z"/><glyph unicode="&#xE6;" glyph-name="ae" horiz-adv-x="826" d="M210 137Q210 88 263 88T355 136Q342 175 340 223Q210 216 210 137ZM598 331Q634 336 634 370T621 428T581 451T531 418T499 319L598 331ZM620 98Q702 98 760 161Q782 152 782 119Q782 71 725 30T592 -11Q460 -11 393 68Q319 -11 214 -11Q134 -11 87 23T40 119Q40 195 119 240T340 288V383Q340 450 286 450Q264 450 250 437T235 401T251 359Q217 323 166 323T90 346T65 406Q65 462 131 498T280 534Q384 534 441 477Q509 534 596 534T739 479T796 352Q796 297 770 273T680 247L496 242Q503 98 620 98Z"/><glyph unicode="&#xE7;" glyph-name="ccedilla" horiz-adv-x="523" d="M48 240Q48 359 124 446T319 534Q386 534 436 502T487 415Q487 378 464 358T403 337T335 360Q338 372 338 392T327 428T295 444Q256 444 228 391T199 260T233 140T324 98Q407 98 463 161Q486 152 486 119Q486 69 432 30T303 -11L284 -62H285Q412 -62 412 -154Q412 -202 359 -234T230 -266T107 -239T60 -175Q60 -150 82 -137Q101 -167 136 -182T208 -198Q280 -198 280 -154T217 -109H199Q174 -109 174 -91Q174 -83 178 -72L206 1Q130 23 89 85T48 240Z"/><glyph unicode="&#xE8;" glyph-name="egrave" horiz-adv-x="534" d="M256 595L311 689Q342 742 370 763T439 785T500 748Q509 731 509 711T496 666Q485 670 467 670T422 649L341 587Q322 570 296 570T256 595ZM330 333T339 342T348 379T333 428T290 451T239 417T207 318L312 331Q330 333 339 342ZM329 98Q412 98 468 161Q491 151 491 119Q491 71 434 30T300 -11Q181 -11 115 54T48 240T121 448T306 534Q392 534 448 479T504 352Q504 297 478 273T389 247L204 242Q211 98 329 98Z"/><glyph unicode="&#xE9;" glyph-name="eacute" horiz-adv-x="534" d="M376 595Q363 570 337 570T291 587L210 649Q183 670 165 670T136 666Q123 690 123 710T132 748Q151 785 192 785T262 764T321 689L376 595ZM330 333T339 342T348 379T333 428T290 451T239 417T207 318L312 331Q330 333 339 342ZM329 98Q412 98 468 161Q491 151 491 119Q491 71 434 30T300 -11Q181 -11 115 54T48 240T121 448T306 534Q392 534 448 479T504 352Q504 297 478 273T389 247L204 242Q211 98 329 98Z"/><glyph unicode="&#xEA;" glyph-name="ecircumflex" horiz-adv-x="534" d="M203 587Q185 570 158 570T118 595L191 702Q219 741 240 758T298 776T355 759T405 702L478 595Q466 570 439 570T393 587L298 669L203 587ZM330 333T339 342T348 379T333 428T290 451T239 417T207 318L312 331Q330 333 339 342ZM329 98Q412 98 468 161Q491 151 491 119Q491 71 434 30T300 -11Q181 -11 115 54T48 240T121 448T306 534Q392 534 448 479T504 352Q504 297 478 273T389 247L204 242Q211 98 329 98Z"/><glyph unicode="&#xEB;" glyph-name="edieresis" horiz-adv-x="534" d="M483 648T454 619T390 589T337 609T317 662T347 725T410 755T463 735T483 682ZM279 648T250 619T186 589T133 609T113 662T143 725T206 755T259 735T279 682ZM330 333T339 342T348 379T333 428T290 451T239 417T207 318L312 331Q330 333 339 342ZM329 98Q412 98 468 161Q491 151 491 119Q491 71 434 30T300 -11Q181 -11 115 54T48 240T121 448T306 534Q392 534 448 479T504 352Q504 297 478 273T389 247L204 242Q211 98 329 98Z"/><glyph unicode="&#xEC;" glyph-name="igrave" horiz-adv-x="307" d="M198 742T226 763T295 785T356 748Q365 731 365 711T352 666Q341 670 323 670T278 649L197 587Q178 570 154 570Q125 570 112 595L167 689Q198 742 226 763ZM235 415V103Q235 49 268 32Q230 -11 176 -11Q78 -11 78 108V421Q78 473 44 491Q82 534 134 534T211 505T235 415Z"/><glyph unicode="&#xED;" glyph-name="iacute" horiz-adv-x="307" d="M235 415V103Q235 49 268 32Q230 -11 176 -11Q78 -11 78 108V421Q78 473 44 491Q82 534 134 534T211 505T235 415ZM232 595Q219 570 193 570T147 587L66 649Q39 670 21 670T-8 666Q-21 690 -21 710T-12 748Q7 785 48 785T118 764T177 689L232 595Z"/><glyph unicode="&#xEE;" glyph-name="icircumflex" horiz-adv-x="307" d="M235 415V103Q235 49 268 32Q230 -11 176 -11Q78 -11 78 108V421Q78 473 44 491Q82 534 134 534T211 505T235 415ZM334 595Q322 570 295 570T249 587L154 669L59 587Q41 570 14 570T-26 595L47 702Q75 741 96 758T154 776T211 759T261 702L334 595Z"/><glyph unicode="&#xEF;" glyph-name="idieresis" horiz-adv-x="307" d="M235 415V103Q235 49 268 32Q230 -11 176 -11Q78 -11 78 108V421Q78 473 44 491Q82 534 134 534T211 505T235 415ZM300 755T319 735T339 682T310 619T246 589T193 609T173 662T203 725T266 755ZM96 755T115 735T135 682T106 619T42 589T-11 609T-31 662T-1 725T62 755Z"/><glyph unicode="&#xF0;" glyph-name="eth" horiz-adv-x="610" d="M318 65Q404 65 404 216Q404 237 402 262Q388 458 292 458Q206 458 206 308Q206 286 208 262Q220 65 318 65ZM512 752Q525 742 525 727T520 701T496 680Q470 665 428 654Q487 577 524 477T562 286T538 136T473 46Q397 -11 305 -11Q190 -11 119 60T48 262T119 463T305 534Q339 534 369 525Q350 575 320 620L187 576Q173 595 173 608T190 639T254 671L276 678Q237 720 205 750Q220 780 250 780Q307 780 379 710L512 752Z"/><glyph unicode="&#xF1;" glyph-name="ntilde" horiz-adv-x="636" d="M189 600Q171 600 157 614T143 658Q143 704 178 736T257 768T349 740T421 712T462 727T479 770Q500 769 512 753T525 713Q525 665 489 634T409 602T313 630T241 659T205 644T189 600ZM564 354V103Q564 49 596 32Q560 -11 505 -11Q407 -11 407 108V331Q407 367 390 387T340 408T278 379T235 291V103Q235 49 268 32Q230 -11 176 -11Q78 -11 78 108V421Q78 473 44 491Q82 534 133 534T208 509T235 430Q262 481 309 507T419 534T523 488T564 354Z"/><glyph unicode="&#xF2;" glyph-name="ograve" horiz-adv-x="610" d="M349 742T377 763T446 785T507 748Q516 731 516 711T503 666Q492 670 474 670T429 649L348 587Q329 570 305 570Q276 570 263 595L318 689Q349 742 377 763ZM292 458Q206 458 206 308Q206 286 208 262Q220 65 318 65Q404 65 404 216Q404 237 402 262Q388 458 292 458ZM190 534T305 534T491 464T562 262T491 60T305 -11T119 60T48 262T119 463Z"/><glyph unicode="&#xF3;" glyph-name="oacute" horiz-adv-x="610" d="M292 458Q206 458 206 308Q206 286 208 262Q220 65 318 65Q404 65 404 216Q404 237 402 262Q388 458 292 458ZM190 534T305 534T491 464T562 262T491 60T305 -11T119 60T48 262T119 463ZM383 595Q370 570 344 570T298 587L217 649Q190 670 172 670T143 666Q130 690 130 710T139 748Q158 785 199 785T269 764T328 689L383 595Z"/><glyph unicode="&#xF4;" glyph-name="ocircumflex" horiz-adv-x="610" d="M210 587Q192 570 165 570T125 595L198 702Q226 741 247 758T305 776T362 759T412 702L485 595Q473 570 446 570T400 587L305 669L210 587ZM318 65Q404 65 404 216Q404 237 402 262Q388 458 292 458Q206 458 206 308Q206 286 208 262Q220 65 318 65ZM190 534T305 534T491 464T562 262T491 60T305 -11T119 60T48 262T119 463Z"/><glyph unicode="&#xF5;" glyph-name="otilde" horiz-adv-x="610" d="M281 768T329 740T401 712T442 727T459 770Q480 769 492 753T505 713Q505 665 469 634T389 602T293 630T221 659T185 644T169 600Q151 600 137 614T123 658Q123 704 158 736T237 768ZM292 458Q206 458 206 308Q206 286 208 262Q220 65 318 65Q404 65 404 216Q404 237 402 262Q388 458 292 458ZM190 534T305 534T491 464T562 262T491 60T305 -11T119 60T48 262T119 463Z"/><glyph unicode="&#xF6;" glyph-name="odieresis" horiz-adv-x="610" d="M292 458Q206 458 206 308Q206 286 208 262Q220 65 318 65Q404 65 404 216Q404 237 402 262Q388 458 292 458ZM190 534T305 534T491 464T562 262T491 60T305 -11T119 60T48 262T119 463ZM451 755T470 735T490 682T461 619T398 589T344 609T324 662T354 725T417 755ZM247 755T266 735T286 682T257 619T194 589T140 609T120 662T150 725T213 755Z"/><glyph unicode="&#xF7;" glyph-name="divide" horiz-adv-x="746" d="M199 480H686Q692 469 692 445T680 399T654 368T616 352Q588 346 547 346H62Q54 365 54 387T66 430T92 459T130 474Q158 480 199 480ZM428 288T450 265T473 203T439 130T366 96T304 119T281 181T315 254T389 288ZM428 732T450 709T473 647T439 574T366 540T304 563T281 625T315 698T389 732Z"/><glyph unicode="&#xF8;" glyph-name="oslash" horiz-adv-x="720" d="M318 65Q404 65 404 216Q404 268 396 315L232 134Q260 65 318 65ZM292 458Q206 458 206 308Q206 249 214 205L379 387Q351 458 292 458ZM474 492Q512 534 545 534T584 504Q550 485 510 440Q562 371 562 262Q562 131 491 60T305 -11Q210 -11 145 37L139 31Q101 -11 69 -11T29 19Q56 33 101 81Q48 150 48 271T119 463T305 534Q400 534 467 484L474 492Z"/><glyph unicode="&#xF9;" glyph-name="ugrave" horiz-adv-x="636" d="M276 595L331 689Q362 742 390 763T459 785T520 748Q529 731 529 711T516 666Q505 670 487 670T442 649L361 587Q342 570 316 570T276 595ZM564 415V103Q564 49 596 32Q560 -11 505 -11Q424 -11 410 70Q359 -11 269 -11T128 35T78 169V421Q78 473 44 491Q82 534 134 534T211 505T235 415V185Q235 108 313 108Q380 108 407 184V421Q407 473 373 491Q411 534 463 534T540 505T564 415Z"/><glyph unicode="&#xFA;" glyph-name="uacute" horiz-adv-x="636" d="M396 595Q383 570 357 570T311 587L230 649Q203 670 185 670T156 666Q143 690 143 710T152 748Q171 785 212 785T282 764T341 689L396 595ZM564 415V103Q564 49 596 32Q560 -11 505 -11Q424 -11 410 70Q359 -11 269 -11T128 35T78 169V421Q78 473 44 491Q82 534 134 534T211 505T235 415V185Q235 108 313 108Q380 108 407 184V421Q407 473 373 491Q411 534 463 534T540 505T564 415Z"/><glyph unicode="&#xFB;" glyph-name="ucircumflex" horiz-adv-x="636" d="M223 587Q205 570 178 570T138 595L211 702Q239 741 260 758T318 776T375 759T425 702L498 595Q486 570 459 570T413 587L318 669L223 587ZM564 415V103Q564 49 596 32Q560 -11 505 -11Q424 -11 410 70Q359 -11 269 -11T128 35T78 169V421Q78 473 44 491Q82 534 134 534T211 505T235 415V185Q235 108 313 108Q380 108 407 184V421Q407 473 373 491Q411 534 463 534T540 505T564 415Z"/><glyph unicode="&#xFC;" glyph-name="udieresis" horiz-adv-x="636" d="M503 648T474 619T410 589T357 609T337 662T367 725T430 755T483 735T503 682ZM299 648T270 619T206 589T153 609T133 662T163 725T226 755T279 735T299 682ZM564 415V103Q564 49 596 32Q560 -11 505 -11Q424 -11 410 70Q359 -11 269 -11T128 35T78 169V421Q78 473 44 491Q82 534 134 534T211 505T235 415V185Q235 108 313 108Q380 108 407 184V421Q407 473 373 491Q411 534 463 534T540 505T564 415Z"/><glyph unicode="&#xFD;" glyph-name="yacute" horiz-adv-x="617" d="M380 595Q367 570 341 570T295 587L214 649Q187 670 169 670T140 666Q127 690 127 710T136 748Q155 785 196 785T266 764T325 689L380 595ZM448 452T448 476T437 516Q465 534 502 534Q555 534 581 494Q594 474 594 447T581 385L390 -132Q340 -268 232 -268Q184 -268 153 -243T122 -184T140 -120Q167 -142 192 -142T236 -128T265 -86L291 -10Q288 -10 286 -10Q248 -10 214 19T163 104L68 408Q57 444 49 461T24 491Q69 534 116 534T189 507T230 421L322 83L437 422Q448 452 448 476Z"/><glyph unicode="&#xFE;" glyph-name="thorn" horiz-adv-x="625" d="M326 80Q366 80 397 131T428 261T398 383T326 427Q299 427 275 410T235 362V126Q272 80 326 80ZM235 665V468Q288 534 377 534T526 463T586 263T514 62T348 -11Q286 -11 235 24V-152Q235 -206 268 -223Q230 -266 178 -266T102 -237T78 -148V671Q78 722 44 740Q81 784 136 784Q235 784 235 665Z"/><glyph unicode="&#xFF;" glyph-name="ydieresis" horiz-adv-x="617" d="M487 648T458 619T394 589T341 609T321 662T351 725T414 755T467 735T487 682ZM283 648T254 619T190 589T137 609T117 662T147 725T210 755T263 735T283 682ZM448 452T448 476T437 516Q465 534 502 534Q555 534 581 494Q594 474 594 447T581 385L390 -132Q340 -268 232 -268Q184 -268 153 -243T122 -184T140 -120Q167 -142 192 -142T236 -128T265 -86L291 -10Q288 -10 286 -10Q248 -10 214 19T163 104L68 408Q57 444 49 461T24 491Q69 534 116 534T189 507T230 421L322 83L437 422Q448 452 448 476Z"/><glyph unicode="&#x2013;" glyph-name="endash" horiz-adv-x="794" d="M205 416H728Q734 405 734 381T722 335T696 304T658 288Q630 282 589 282H68Q60 301 60 323T72 366T98 395T136 410Q164 416 205 416Z"/><glyph unicode="&#x2014;" glyph-name="emdash" horiz-adv-x="1038" d="M205 416H972Q978 406 978 381T966 335T940 304T902 288Q874 282 833 282H68Q60 301 60 323T72 366T98 395T136 410Q164 416 205 416Z"/><glyph unicode="&#x2018;" glyph-name="quoteleft" horiz-adv-x="349" d="M210 782Q210 746 227 716T277 673Q267 644 243 625T176 605T103 635T72 716Q72 802 130 866T239 930Q266 930 272 901Q210 854 210 782Z"/><glyph unicode="&#x2019;" glyph-name="quoteright" horiz-adv-x="349" d="M77 634Q139 679 139 756T72 862Q82 891 106 910T173 930T246 900T277 818Q277 733 219 669T110 605Q84 605 77 634Z"/><glyph unicode="&#x201A;" glyph-name="quotesinglbase" horiz-adv-x="720" d="M82 -196Q156 -139 156 -55T86 72Q98 106 125 130T193 154T267 115T299 8Q299 -83 239 -156T121 -229Q90 -229 82 -196Z"/><glyph unicode="&#x201C;" glyph-name="quotedblleft" horiz-adv-x="590" d="M451 782Q451 747 468 717T518 673Q508 644 484 625T417 605T344 635T313 716Q313 802 372 866T480 930Q507 930 514 901Q451 855 451 782ZM210 782Q210 746 227 716T277 673Q267 644 243 625T176 605T103 635T72 716Q72 802 130 866T239 930Q266 930 272 901Q210 854 210 782Z"/><glyph unicode="&#x201D;" glyph-name="quotedblright" horiz-adv-x="590" d="M77 634Q139 679 139 756T72 862Q82 891 106 910T173 930T246 900T277 818Q277 733 219 669T110 605Q84 605 77 634ZM318 634Q380 679 380 756T313 862Q323 891 347 910T414 930T487 900T518 818Q518 733 460 669T352 605Q325 605 318 634Z"/><glyph unicode="&#x201E;" glyph-name="quotedblbase" horiz-adv-x="720" d="M82 -196Q156 -139 156 -55T86 72Q98 106 125 130T193 154T267 115T299 8Q299 -83 239 -156T121 -229Q90 -229 82 -196Z"/><glyph unicode="&#x2022;" glyph-name="bullet" horiz-adv-x="556" d="M437 442Q437 368 381 311T257 254T153 293T115 389Q115 462 173 519T296 576T399 538T437 442Z"/><glyph unicode="&#x2039;" glyph-name="guilsinglleft" horiz-adv-x="346" d="M234 533T208 487T181 405T208 321T310 175Q307 168 298 161T276 154Q242 154 184 200T81 308T36 404T81 501T184 608T276 655Q288 655 297 648T310 634Q234 533 208 487Z"/><glyph unicode="&#x203A;" glyph-name="guilsinglright" horiz-adv-x="346" d="M219 562T264 501T310 405T265 308T161 201T70 154Q58 154 48 161T36 175Q110 273 137 320T164 404T138 487T36 634Q38 640 48 647T70 655Q103 655 161 609Z"/></font>
</defs>
</svg>
