<?xml version="1.0" encoding="utf-8" ?>
<!DOCTYPE svg PUBLIC "-//W3C//DTD SVG 1.1//EN" "http://www.w3.org/Graphics/SVG/1.1/DTD/svg11.dtd">
<svg xmlns="http://www.w3.org/2000/svg"><defs><font id="Laila" horiz-adv-x="561"><font-face font-family="Laila" units-per-em="1000" panose-1="2 0 0 0 0 0 0 0 0 0" ascent="1098" descent="-452" alphabetic="0"/><glyph unicode="" glyph-name="space" horiz-adv-x="272"/><glyph unicode="!" glyph-name="exclam" horiz-adv-x="337" d="M187 295Q186 278 186 251T194 201Q184 186 167 186Q129 186 125 252L111 694Q111 700 111 705Q111 739 123 759T158 780T194 760T208 708Q208 701 207 694L187 295ZM195 109T209 95T223 57T202 12T157 -9T119 5T105 43T126 88T171 109Z"/><glyph unicode="&quot;" glyph-name="quotedbl" horiz-adv-x="316" d="M80 904Q122 904 122 830T110 675T82 595T53 676T40 831T80 904ZM234 904Q276 904 276 830T264 675T235 595T206 676T194 830T234 904Z"/><glyph unicode="#" glyph-name="numbersign" horiz-adv-x="772" d="M443 242L509 474H320L253 242H443ZM629 242Q633 228 633 224Q633 176 553 176H503L470 61Q450 -9 397 -9Q367 -9 358 23Q383 34 392 62L424 176H234L201 61Q181 -9 129 -9Q98 -9 89 23Q115 34 123 62L156 176H60Q56 188 56 195Q56 242 136 242H175L242 474H145Q140 482 140 492Q140 539 220 539H260L294 656Q314 725 366 725Q396 725 407 694Q380 683 372 655L339 539H528L561 656Q585 725 634 725Q665 725 676 694Q649 684 640 655L607 539H713Q717 531 717 521Q717 474 637 474H588L522 242H629Z"/><glyph unicode="$" glyph-name="dollar" horiz-adv-x="603" d="M376 794V726Q459 716 508 678T557 589Q557 561 542 545T507 528T463 536Q467 552 467 567Q467 604 429 635T322 667T212 638T171 561T213 477T315 415T436 362T539 294T581 199Q581 117 514 59T347 -8V-72Q347 -100 372 -110Q351 -142 319 -142Q264 -142 264 -72V-6Q177 6 123 52T68 162Q68 194 86 214T134 235T181 211Q158 190 158 152T200 84T315 54T443 92T497 185Q497 220 467 249T391 297T292 340T194 388T118 452T87 543Q87 617 147 667T293 727V792Q293 822 268 831Q288 863 320 863Q376 863 376 794Z"/><glyph unicode="%" glyph-name="percent" horiz-adv-x="849" d="M376 458T331 394T219 330T117 383T81 517T124 661T234 725T339 672T376 539ZM313 587T291 625T231 663T168 623T143 526T166 431T227 393T288 434T313 531ZM625 693Q651 725 673 725T710 706Q702 703 681 675L224 25Q200 -9 177 -9T141 11Q152 19 168 42L625 693ZM768 119T723 55T611 -9T509 45T473 178T516 322T627 387T731 333T768 199ZM704 247T683 285T623 324T560 284T535 186T558 91T619 53T680 93T704 190Z"/><glyph unicode="&amp;" glyph-name="ampersand" horiz-adv-x="728" d="M439 369Q439 403 501 403Q584 403 610 430Q628 450 628 483Q628 495 625 510Q649 521 667 521T698 512Q726 494 726 452T687 381T571 351Q600 302 600 231Q600 130 525 61T333 -9T144 51T72 204Q72 316 184 385Q143 403 121 440T98 529Q98 616 157 670T286 725T393 699T430 631Q430 605 408 592Q395 586 381 586T353 590Q349 635 329 654T268 674T200 642T172 554T208 467T314 434Q320 424 320 414T312 392Q295 371 255 371Q239 371 231 372Q195 348 174 308T153 224Q153 149 204 107T341 65T486 111T546 228Q546 349 444 349Q439 360 439 369Z"/><glyph unicode="'" glyph-name="quotesingle" horiz-adv-x="162" d="M124 860T124 793T112 661T81 595Q65 595 52 661T39 794T80 860Q124 860 124 793Z"/><glyph unicode="(" glyph-name="parenleft" horiz-adv-x="452" d="M194 548T194 253T424 -261Q416 -278 392 -278T321 -237T227 -128T146 43T112 250T145 457T225 628T319 740T391 783T424 767Q194 548 194 253Z"/><glyph unicode=")" glyph-name="parenright" horiz-adv-x="452" d="M276 559T309 457T343 251T309 43T228 -127T135 -236T64 -278T31 -261Q261 -42 261 253T31 767Q38 783 63 783T136 740T229 628Z"/><glyph unicode="*" glyph-name="asterisk" horiz-adv-x="550" d="M321 887Q321 838 300 767Q392 830 439 830Q458 830 471 819T485 787Q485 756 438 739T356 720T314 720Q354 693 387 655T421 588Q421 572 409 560T379 548Q349 548 320 592T274 690Q257 637 229 592T170 547Q152 547 141 560T130 594T162 654T234 720Q228 719 193 720T111 739T64 787Q64 807 78 817T112 828Q162 828 250 768Q231 831 231 874Q231 952 273 952Q321 952 321 887Z"/><glyph unicode="+" glyph-name="plus" horiz-adv-x="674" d="M530 370Q508 370 368 374L371 208Q371 135 320 135Q306 135 302 137L306 374L74 370Q69 380 69 390Q69 439 143 439Q192 439 306 436Q304 490 302 589Q302 662 352 662Q361 662 371 657L368 436L600 439Q604 435 604 422Q604 370 530 370Z"/><glyph unicode="," glyph-name="comma" horiz-adv-x="264" d="M135 -32Q135 4 117 31T67 68Q69 91 86 108T129 125Q167 125 189 91T211 10Q211 -61 177 -114T105 -167Q83 -167 80 -145Q135 -106 135 -32Z"/><glyph unicode="-" glyph-name="hyphen" horiz-adv-x="503" d="M135 379H441Q443 371 443 361Q443 309 368 309H65Q60 319 60 328Q60 379 135 379Z"/><glyph unicode="." glyph-name="period" horiz-adv-x="356" d="M212 128T227 113T242 71T219 22T170 -2T128 13T112 55T135 104T185 128Z"/><glyph unicode="/" glyph-name="slash" horiz-adv-x="562" d="M451 956Q470 956 489 943Q476 932 464 896L127 -70Q122 -90 109 -108T74 -127T35 -112Q48 -100 59 -65L396 898Q415 956 451 956Z"/><glyph unicode="0" glyph-name="zero" horiz-adv-x="653" d="M209 -9T134 95T58 362T133 624T327 725T520 625T594 362T519 96T327 -9ZM501 511T446 587T317 664T196 578T147 371Q147 214 204 134T335 54T457 139T506 345Q506 359 505 374Q501 511 446 587Z"/><glyph unicode="1" glyph-name="one" horiz-adv-x="351" d="M233 636V62Q233 33 258 23Q238 -9 206 -9Q149 -9 149 61V619Q149 654 115 654T39 628Q25 633 25 648Q25 672 64 698T147 725T211 701T233 636Z"/><glyph unicode="2" glyph-name="two" horiz-adv-x="577" d="M512 106Q533 89 533 63T506 18T426 0H117Q85 0 70 16T54 55Q54 58 54 61Q230 206 315 314T401 517Q401 589 363 628T271 668T179 639T141 569T170 503Q149 484 121 484T73 505T53 561Q53 631 116 678T275 725T430 666T490 508T408 307T151 67L411 77Q480 78 512 106Z"/><glyph unicode="3" glyph-name="three" horiz-adv-x="555" d="M365 725T415 684T466 581T420 472T305 404Q387 396 442 340T497 203Q497 106 426 49T247 -9Q172 -9 109 30T46 124Q46 146 59 160T91 179Q117 121 166 88T278 54T385 91T428 181Q428 253 368 296T226 340Q194 340 169 333Q157 340 157 358T192 398T270 437T347 488T383 564T351 631T269 656Q177 656 109 599Q90 605 90 623Q90 651 152 688T290 725Z"/><glyph unicode="4" glyph-name="four" horiz-adv-x="586" d="M148 230H361V603Q361 619 349 619Q330 619 274 549T169 389T119 253Q119 230 148 230ZM444 230H487Q537 230 557 248Q568 235 568 214T543 180T476 167H444V62Q444 34 469 23Q451 -9 417 -9Q361 -9 361 61V167H135Q54 167 54 234Q54 284 92 368T184 531T297 667T397 725Q444 725 444 662V230Z"/><glyph unicode="5" glyph-name="five" horiz-adv-x="551" d="M276 444Q369 444 429 384T489 231T422 64T254 -9Q185 -9 129 27T72 118Q72 140 89 155T124 170Q143 118 184 90T284 61T382 103T421 207Q421 287 365 332T230 378Q176 378 126 360Q111 361 100 371T89 409T135 638Q144 682 174 699T259 717H368Q419 717 444 736Q461 722 461 699Q461 639 351 639H201L156 423Q214 444 276 444Z"/><glyph unicode="6" glyph-name="six" horiz-adv-x="601" d="M63 302Q63 474 177 599T441 725Q487 725 487 697Q487 691 486 689Q346 675 248 574T150 311Q150 200 198 126T335 51Q391 51 428 88T465 203T409 327T271 373Q259 373 247 372Q248 404 272 420T331 437Q423 437 484 375T545 225Q545 116 479 54T317 -9Q197 -9 130 78T63 302Z"/><glyph unicode="7" glyph-name="seven" horiz-adv-x="481" d="M122 717H433Q441 704 441 680T404 588T323 448T241 278T204 102Q204 47 241 36Q238 20 225 6T182 -9T133 17T112 91T136 208T207 364Q276 490 375 646Q339 637 281 637H124Q74 637 46 607Q24 617 24 649T52 699T122 717Z"/><glyph unicode="8" glyph-name="eight" horiz-adv-x="575" d="M141 201Q141 139 187 92T311 45Q362 45 400 75T438 156Q438 216 387 256Q341 293 287 321T214 361Q141 295 141 201ZM418 517Q418 578 379 626T283 674T189 643T152 562Q152 483 261 422Q278 413 311 396T360 369Q418 431 418 517ZM499 530Q499 471 470 425T394 350Q451 315 483 275T515 179Q515 106 454 49T302 -9T136 45T60 188Q60 250 94 302T180 382Q129 415 102 453T74 551T133 668T279 725T432 671T499 530Z"/><glyph unicode="9" glyph-name="nine" horiz-adv-x="556" d="M514 408Q514 303 467 207T338 51T160 -9Q141 -9 128 -2T114 16T115 28Q249 41 339 143T430 392Q430 541 348 620Q302 663 242 663T145 628T108 532Q108 440 176 388Q234 344 314 344Q328 344 342 345Q342 313 318 297T258 280Q161 280 97 347T32 510T95 665T252 725Q374 725 444 636T514 408Z"/><glyph unicode=":" glyph-name="colon" horiz-adv-x="317" d="M197 508T212 493T227 451T204 402T155 379T113 394T97 435T120 485T170 508ZM197 131T212 116T227 74T204 25T155 2T113 17T97 59T120 108T170 131Z"/><glyph unicode=";" glyph-name="semicolon" horiz-adv-x="317" d="M197 508T212 493T227 451T204 402T155 379T113 394T97 435T120 485T170 508ZM165 -30Q165 6 146 34T95 71Q97 94 115 110T159 127Q197 127 218 93T239 15Q239 -56 206 -111T135 -167Q113 -167 109 -145Q165 -107 165 -30Z"/><glyph unicode="&lt;" glyph-name="less" horiz-adv-x="664" d="M132 411Q132 389 279 323T539 231Q539 200 522 184T470 168T331 209T131 306T36 397Q36 434 139 495T354 600T499 645T533 613Q431 581 282 511T132 411Z"/><glyph unicode="=" glyph-name="equal" horiz-adv-x="706" d="M161 556H617Q619 552 619 540Q619 486 544 486H90Q86 494 86 505Q86 556 161 556ZM161 316H617Q619 311 619 300Q619 246 544 246H90Q86 256 86 265Q86 316 161 316Z"/><glyph unicode="&gt;" glyph-name="greater" horiz-adv-x="659" d="M434 250T328 209T188 168Q121 168 121 231Q233 257 380 323T527 411Q527 440 378 510T126 613Q126 645 159 645T304 601T519 495T623 397Q623 363 529 307Z"/><glyph unicode="?" glyph-name="question" horiz-adv-x="494" d="M304 392T287 365T270 311T283 268T322 249Q321 229 306 216T264 203T212 227T187 289T203 359T243 417T290 469Q347 532 347 602Q347 646 318 679T241 713T166 691T137 634Q137 564 201 539Q200 528 183 519T147 510Q106 510 81 538T56 613Q56 675 113 717T251 760T382 716T433 608Q433 563 416 526T375 463T328 415ZM283 111T297 97T312 59T290 13T242 -9T202 5T187 44T209 90T257 111Z"/><glyph unicode="@" glyph-name="at" horiz-adv-x="870" d="M328 188Q328 136 397 136T516 191L522 292Q425 286 378 260Q328 232 328 188ZM591 162Q591 131 621 131Q666 131 707 186T748 345Q748 467 667 540T465 614Q310 614 215 515T120 247Q120 173 143 117T205 30Q280 -30 382 -30T564 14Q571 7 571 -3T550 -30Q491 -75 369 -75Q257 -75 168 -2Q124 34 97 98T70 247Q70 433 184 546T470 659Q610 659 704 572T798 346Q798 226 736 153T600 80Q565 80 542 97T515 147Q460 82 369 82Q313 82 280 109T246 179Q246 246 317 284T524 328L527 378Q527 383 527 388Q527 431 510 454T449 477T384 461T360 425T371 391Q352 379 328 379T291 390T278 420Q278 461 329 489T452 517T564 483T604 390Q604 387 604 384L591 168Q591 165 591 162Z"/><glyph unicode="A" glyph-name="A" horiz-adv-x="639" d="M200 230H441L329 581L200 230ZM621 17Q605 -9 575 -9T529 4T503 51L462 169H177L135 60Q109 -9 69 -9Q35 -9 22 25Q45 34 58 72L293 665Q282 692 268 705Q291 725 315 725T353 710T379 662L583 68Q597 27 621 17Z"/><glyph unicode="B" glyph-name="B" horiz-adv-x="697" d="M595 530Q595 413 473 374Q548 355 594 310T641 193Q641 101 562 46T347 -9T155 25T97 126L98 634Q98 671 83 690Q184 725 318 725T523 671T595 530ZM339 395Q418 395 461 430T505 527T458 624T328 661T184 645L182 395H335Q337 395 339 395ZM339 54Q442 54 496 91T551 192T496 295T338 333H182L181 127Q181 54 339 54Z"/><glyph unicode="C" glyph-name="C" horiz-adv-x="677" d="M605 605Q605 580 589 566T550 552T513 559Q514 566 514 572Q514 606 483 633T386 660Q294 660 226 582T157 361T219 144T392 68Q451 68 502 92T586 149Q593 148 599 140T606 117Q606 80 536 36T369 -9Q236 -9 151 87T65 349T162 620T403 725Q489 725 547 690T605 605Z"/><glyph unicode="D" glyph-name="D" horiz-adv-x="722" d="M304 725Q452 725 562 639Q616 596 648 524T681 358T649 193T562 77Q452 -9 304 -9Q183 -9 140 22T97 116L98 634Q98 671 83 690Q184 725 304 725ZM304 53Q425 53 508 131T591 357T508 583T304 661Q241 661 184 645L181 116Q181 92 187 80Q201 53 304 53Z"/><glyph unicode="E" glyph-name="E" horiz-adv-x="640" d="M264 67H466Q523 67 551 109Q564 104 572 92T580 66Q580 0 470 0H260Q183 0 146 31T109 132V641Q109 671 84 681Q108 717 164 717H480Q580 717 580 665Q580 634 551 624Q523 649 466 649H193V405H404Q459 405 482 396T505 361T481 323Q454 337 396 337H193V135Q193 99 209 83T264 67Z"/><glyph unicode="F" glyph-name="F" horiz-adv-x="608" d="M164 717H481Q580 717 580 667Q580 637 551 625Q522 651 466 651H193V403H404Q459 403 482 395T505 362T481 323Q454 337 396 337H193V62Q193 33 218 23Q197 -9 165 -9Q109 -9 109 61V641Q109 671 84 681Q108 717 164 717Z"/><glyph unicode="G" glyph-name="G" horiz-adv-x="715" d="M609 -99Q553 -99 553 -30V81Q522 44 472 18T361 -9Q236 -9 151 80T65 321Q65 501 168 613T437 725Q532 725 589 688T647 599Q647 576 631 562T593 547T555 555Q556 560 556 566Q556 604 522 632T417 660Q298 660 228 576T157 350T214 136T377 63T555 161L557 311H497Q438 311 375 306Q364 321 364 336Q364 359 399 369T515 379T617 365T639 312L637 -29Q637 -58 662 -67Q643 -99 609 -99Z"/><glyph unicode="H" glyph-name="H" horiz-adv-x="748" d="M648 656V62Q648 33 673 23Q653 -9 621 -9Q565 -9 565 61V328H180V62Q180 34 204 23Q184 -9 151 -9Q96 -9 96 61V655Q96 683 71 694Q89 725 123 725Q180 725 180 656V389H565V655Q565 683 540 694Q558 725 592 725Q648 725 648 656Z"/><glyph unicode="I" glyph-name="I" horiz-adv-x="279" d="M180 656V62Q180 34 204 23Q184 -9 151 -9Q96 -9 96 61V655Q96 683 71 694Q89 725 123 725Q180 725 180 656Z"/><glyph unicode="J" glyph-name="J" horiz-adv-x="396" d="M315 656V147Q315 73 272 33T164 -8T63 12T27 58T39 95Q86 62 147 62Q231 62 231 145V655Q231 684 206 694Q226 725 259 725Q315 725 315 656Z"/><glyph unicode="K" glyph-name="K" horiz-adv-x="643" d="M542 -8Q519 -8 498 7T434 65L180 326V62Q180 34 204 23Q184 -9 151 -9Q96 -9 96 61V655Q96 683 71 694Q89 725 123 725Q180 725 180 656V388L444 668Q476 701 495 713T535 725T571 711T593 678Q561 667 518 626L256 366L536 81Q568 46 605 38Q584 -8 545 -8Q543 -8 542 -8Z"/><glyph unicode="L" glyph-name="L" horiz-adv-x="576" d="M102 131V655Q102 683 77 694Q97 725 130 725Q186 725 186 656V133Q186 97 202 81T257 65H421Q476 65 502 107Q531 97 531 67Q531 0 421 0H252Q174 0 138 30T102 131Z"/><glyph unicode="M" glyph-name="M" horiz-adv-x="956" d="M876 8Q853 -8 829 -8T791 7T774 60L736 603L509 36Q499 9 472 9T435 36L214 604L177 63Q171 -9 124 -9Q100 -9 77 12Q91 24 95 65L139 651Q139 655 139 659Q139 688 125 705Q156 725 188 725Q252 725 281 643L476 147L679 642Q708 725 777 725Q804 725 833 708Q818 693 818 662Q818 658 818 654L861 66Q863 22 876 8Z"/><glyph unicode="N" glyph-name="N" horiz-adv-x="768" d="M108 61V655Q108 684 83 694Q105 725 137 725T191 709T235 658L578 116V655Q578 683 553 694Q573 725 606 725Q662 725 662 656V62Q662 34 685 21Q666 -9 634 -9T578 11T524 75L191 591V62Q191 34 216 23Q196 -9 164 -9Q108 -9 108 61Z"/><glyph unicode="O" glyph-name="O" horiz-adv-x="768" d="M305 53T405 53T564 142Q614 216 614 328Q614 350 612 374Q602 514 533 589T364 665T204 575Q155 501 155 392Q155 218 237 128Q305 53 405 53ZM527 725T611 627T696 360T612 92T385 -9T158 91T72 358T157 625T385 725Z"/><glyph unicode="P" glyph-name="P" horiz-adv-x="621" d="M316 653H187V335H316Q399 335 442 378T486 493T443 609T316 653ZM159 717H320Q436 717 507 657T578 495T507 333T320 272H188V62Q188 33 213 23Q192 -9 159 -9Q104 -9 104 61V641Q104 670 79 681Q103 717 159 717Z"/><glyph unicode="Q" glyph-name="Q" horiz-adv-x="774" d="M710 -93Q722 -108 722 -124T716 -156T695 -186Q660 -219 592 -219T451 -181T333 -93T287 -7Q287 6 302 16T362 39Q476 72 546 160T616 384T551 591T388 664T234 592T176 407T224 233T358 169Q352 144 333 128T284 112Q205 112 146 188T86 373Q86 524 176 624T401 725T622 636T709 404Q709 229 611 123T355 -20Q402 -73 470 -103T602 -134T710 -93Z"/><glyph unicode="R" glyph-name="R" horiz-adv-x="630" d="M187 361H316Q400 361 443 399T486 505T443 612T316 651H187V361ZM538 -8Q510 -8 491 6T443 62L279 295H188V62Q188 33 213 23Q192 -9 159 -9Q104 -9 104 61V641Q104 670 79 681Q103 717 159 717H317Q434 717 504 661T575 513T523 368T379 300L544 80Q569 46 606 43Q583 -8 538 -8Z"/><glyph unicode="S" glyph-name="S" horiz-adv-x="644" d="M557 589Q557 561 542 545T507 528T463 536Q467 552 467 567Q467 604 429 635T322 667T212 638T171 561T213 477T315 415T436 362T539 294T581 199Q581 110 504 51T318 -9T139 39T68 162Q68 194 86 214T134 235T181 211Q158 190 158 152T200 84T315 54T443 92T497 185Q497 220 467 249T391 297T292 340T194 388T118 452T87 543Q87 624 158 676T329 729T492 688T557 589Z"/><glyph unicode="T" glyph-name="T" horiz-adv-x="549" d="M96 717H480Q536 717 536 672Q536 652 520 636Q495 650 454 650H315V62Q315 35 340 23Q320 -9 289 -9Q232 -9 232 61V650H69Q14 650 14 694Q14 715 29 730Q56 717 96 717Z"/><glyph unicode="U" glyph-name="U" horiz-adv-x="704" d="M101 257V655Q101 683 76 694Q98 725 128 725Q184 725 184 656V247Q184 156 227 110T365 63Q546 63 546 247V655Q546 683 520 694Q540 725 573 725Q628 725 628 656V257Q628 133 564 63T366 -8T167 63T101 257Z"/><glyph unicode="V" glyph-name="V" horiz-adv-x="643" d="M554 666T554 686T544 718Q567 728 587 728T622 715T636 681T628 640L395 51Q381 16 368 4T330 -9T291 4T265 51L43 641Q28 682 6 695Q31 725 65 725Q86 725 100 710T127 663L335 79L544 639Q554 666 554 686Z"/><glyph unicode="W" glyph-name="W" horiz-adv-x="973" d="M869 660Q869 691 848 705Q868 725 895 725T936 710T950 674T944 631L786 52Q769 -8 718 -8T652 52L503 607L355 52Q340 -8 286 -8Q259 -8 244 5T220 52L61 634Q50 675 22 687Q40 725 81 725Q104 725 119 709T144 652L290 80L446 674Q460 725 509 725T572 674L724 79L865 630Q869 647 869 660Z"/><glyph unicode="X" glyph-name="X" horiz-adv-x="630" d="M601 18T585 5T547 -9T509 2T474 42L317 280L147 43Q109 -9 72 -9Q52 -9 39 4T25 39Q25 43 26 48Q55 48 78 79L275 345L84 635Q59 673 22 675Q28 697 45 711T85 725Q126 725 158 675L330 415L498 648Q516 671 516 687T502 714Q528 727 551 727T588 715T601 680T582 631L373 349L549 82Q574 43 607 39Q601 18 585 5Z"/><glyph unicode="Y" glyph-name="Y" horiz-adv-x="596" d="M311 -8Q257 -8 257 66L258 317L75 638Q51 675 15 676Q30 725 75 725T150 673L306 395L467 646Q483 668 483 684T471 713Q492 725 519 725T558 713T571 681T555 634L341 320L340 60Q340 28 358 8Q337 -8 311 -8Z"/><glyph unicode="Z" glyph-name="Z" horiz-adv-x="610" d="M558 58Q558 0 431 0H122Q90 0 71 17T51 59T86 129L476 655Q326 639 195 639T64 696Q64 717 81 731Q120 717 186 717H486Q519 717 538 700T558 657T522 587L135 62L438 74Q506 77 540 99Q558 81 558 58Z"/><glyph unicode="[" glyph-name="bracketleft" horiz-adv-x="392" d="M161 -140H270Q331 -140 331 -183Q331 -194 328 -197H159Q102 -197 86 -162Q77 -143 77 -114V845H270Q331 845 331 801Q331 789 328 785H161V-140Z"/><glyph unicode="\" glyph-name="backslash" horiz-adv-x="562" d="M96 967Q131 967 151 910Q214 736 327 408T488 -52Q499 -89 512 -100Q496 -114 475 -114Q438 -114 419 -56Q385 41 291 312T83 908Q70 946 58 954Q75 967 96 967Z"/><glyph unicode="]" glyph-name="bracketright" horiz-adv-x="392" d="M248 787H139Q78 787 78 830Q78 837 80 845H249Q307 845 324 809Q332 790 332 761V-197H139Q78 -197 78 -154Q78 -145 80 -139H248V787Z"/><glyph unicode="^" glyph-name="asciicircum" horiz-adv-x="570" d="M482 236Q451 236 425 286L277 571L103 237Q83 237 69 250T54 292T74 355L230 637Q249 671 275 671T315 639L517 251Q501 236 482 236Z"/><glyph unicode="_" glyph-name="underscore" horiz-adv-x="577" d="M73 -85H575Q577 -93 577 -102Q577 -155 502 -155H2Q-2 -145 -2 -136Q-2 -85 73 -85Z"/><glyph unicode="`" glyph-name="grave" horiz-adv-x="234" d="M203 696Q181 696 161 678L65 585Q47 568 34 568Q19 568 12 583L98 713Q131 765 169 765Q197 765 209 748T222 717T220 694Q212 696 203 696Z"/><glyph unicode="a" glyph-name="a" horiz-adv-x="527" d="M144 128Q144 56 222 56T352 125V244Q246 238 195 207T144 128ZM435 356V90Q435 37 484 30Q465 -9 421 -9Q358 -9 352 72Q294 -9 196 -9Q134 -9 94 25T54 119Q54 193 128 238T352 288V348Q352 410 330 439T261 469T189 450T165 406T179 366Q158 350 133 350T91 364T75 404Q75 451 129 484T262 517T388 475T435 356Z"/><glyph unicode="b" glyph-name="b" horiz-adv-x="576" d="M288 57Q363 57 407 112T451 258T409 398T305 448Q215 448 171 358L170 162Q170 57 288 57ZM171 441Q226 517 317 517T473 452T537 265T464 68Q391 -8 290 -8T138 36T87 162L88 689Q88 719 63 729Q84 760 116 760Q172 760 172 691L171 441Z"/><glyph unicode="c" glyph-name="c" horiz-adv-x="491" d="M444 421Q444 397 430 383T396 369T363 377Q366 388 366 399Q366 460 291 460Q230 460 182 404T134 253T178 109T288 61Q371 61 426 114Q439 103 439 85Q439 53 389 22T275 -9Q182 -9 116 55T50 237T124 436T306 517Q369 517 406 489T444 421Z"/><glyph unicode="d" glyph-name="d" horiz-adv-x="573" d="M401 413Q356 455 292 455T182 400T136 248T175 104T275 56Q376 56 401 170V413ZM485 691V62Q485 33 510 23Q489 -9 457 -9Q401 -9 401 61V77Q356 -9 257 -9Q173 -9 110 58T47 245T115 441T279 517Q347 517 401 483V689Q401 719 376 729Q395 760 428 760Q485 760 485 691Z"/><glyph unicode="e" glyph-name="e" horiz-adv-x="489" d="M326 308Q367 311 367 355T342 429T270 459T186 415T139 293L326 308ZM137 152T179 105T301 58T432 110Q447 102 447 83Q447 50 399 21T285 -9Q182 -9 116 56T50 238T121 436T286 517Q360 517 406 466T453 350Q453 303 428 281T345 256L137 250Q137 152 179 105Z"/><glyph unicode="f" glyph-name="f" horiz-adv-x="349" d="M123 465V601Q123 678 165 719T268 760T362 736T396 679Q396 659 380 652Q340 698 286 698Q250 698 229 675T207 605V465H364Q370 458 370 447Q370 401 221 401H207V-127Q207 -187 182 -217T117 -248Q63 -248 41 -197Q87 -197 105 -177T123 -108V402Q35 407 35 441Q35 455 48 470Q71 465 115 465H123Z"/><glyph unicode="g" glyph-name="g" horiz-adv-x="558" d="M224 166T271 166T347 204T376 302Q376 382 339 425T256 469T180 431T151 339Q151 329 152 318Q157 247 190 207ZM363 -32H235Q164 -32 120 -8T76 73T144 158Q68 214 68 311T127 462T264 517Q318 517 363 490Q369 538 399 568T463 598T515 582T534 540T513 501Q491 518 466 518T424 503T401 462Q460 405 460 316T401 173T264 119Q225 119 193 132Q149 121 149 89Q149 65 171 55T244 45H359Q432 45 470 13T509 -75Q509 -149 436 -198T259 -247T95 -208T34 -114Q34 -85 50 -67T92 -44Q98 -177 274 -177Q354 -177 398 -152T443 -84Q443 -32 363 -32Z"/><glyph unicode="h" glyph-name="h" horiz-adv-x="594" d="M506 345V62Q506 34 532 23Q511 -9 479 -9Q424 -9 424 61V339Q424 444 332 444Q282 444 237 404T175 297V62Q175 33 200 23Q179 -9 148 -9Q92 -9 92 61V689Q92 718 67 729Q84 760 119 760Q175 760 175 691V395Q201 449 249 483T361 517T466 474T506 345Z"/><glyph unicode="i" glyph-name="i" horiz-adv-x="265" d="M162 730T178 716T195 676T174 630T125 609T81 625T64 667T87 711T136 730ZM175 447V62Q175 33 200 23Q179 -9 148 -9Q92 -9 92 61V445Q92 474 67 485Q86 517 119 517Q175 517 175 447Z"/><glyph unicode="j" glyph-name="j" horiz-adv-x="265" d="M175 447V-127Q175 -187 150 -217T85 -248Q34 -248 8 -197Q55 -197 73 -177T92 -108V445Q92 474 67 485Q86 517 119 517Q175 517 175 447ZM162 730T178 716T195 676T174 630T125 609T81 625T64 667T87 711T136 730Z"/><glyph unicode="k" glyph-name="k" horiz-adv-x="537" d="M175 691V295Q286 343 339 400T393 517Q427 517 447 500T467 454Q467 403 406 355T244 275Q386 100 444 77Q469 67 504 67Q504 35 488 13T442 -9Q396 -9 348 40T175 258V62Q175 33 200 23Q179 -9 148 -9Q92 -9 92 61V689Q92 718 67 729Q84 760 119 760Q175 760 175 691Z"/><glyph unicode="l" glyph-name="l" horiz-adv-x="266" d="M175 691V62Q175 33 200 23Q179 -9 148 -9Q92 -9 92 61V689Q92 718 67 729Q84 760 119 760Q175 760 175 691Z"/><glyph unicode="m" glyph-name="m" horiz-adv-x="928" d="M838 345V62Q838 34 863 23Q845 -9 811 -9Q755 -9 755 61V339Q755 444 663 444Q613 444 568 403T506 293V62Q506 34 532 23Q511 -9 479 -9Q424 -9 424 61V339Q424 444 332 444Q282 444 237 404T175 297V62Q175 33 200 23Q179 -9 148 -9Q92 -9 92 61V445Q92 474 67 485Q86 517 119 517Q175 517 175 447V395Q201 449 249 483T357 517T455 484T503 385Q526 442 576 479T691 517T797 474T838 345Z"/><glyph unicode="n" glyph-name="n" horiz-adv-x="594" d="M506 345V62Q506 34 532 23Q511 -9 479 -9Q424 -9 424 61V339Q424 444 332 444Q282 444 237 404T175 297V62Q175 33 200 23Q179 -9 148 -9Q92 -9 92 61V445Q92 474 67 485Q86 517 119 517Q175 517 175 447V395Q201 449 249 483T361 517T466 474T506 345Z"/><glyph unicode="o" glyph-name="o" horiz-adv-x="574" d="M349 460T280 460T173 413T135 273Q135 154 181 101T297 47T403 95T440 235Q440 355 395 407ZM189 517T288 517T456 448T526 254T457 60T288 -9T120 60T50 254T119 448Z"/><glyph unicode="p" glyph-name="p" horiz-adv-x="581" d="M305 59Q366 59 408 111T451 254T409 396T305 448Q219 448 175 366V128Q200 90 231 75T305 59ZM175 447V446Q227 517 317 517T472 449T537 255T470 61T315 -8T175 50V-177Q175 -207 200 -216Q179 -248 148 -248Q92 -248 92 -177V445Q92 474 67 485Q86 517 119 517Q175 517 175 447Z"/><glyph unicode="q" glyph-name="q" horiz-adv-x="565" d="M401 331Q401 388 371 421T293 455Q226 455 181 400T136 249T180 104T290 55T401 116V331ZM485 517V-177Q485 -207 510 -216Q489 -248 457 -248Q401 -248 401 -177V47Q348 -9 266 -9T115 59T47 245T115 440T278 517Q357 517 402 457Q409 517 462 517H485Z"/><glyph unicode="r" glyph-name="r" horiz-adv-x="421" d="M175 447V410Q217 517 314 517Q361 517 387 493T413 438T397 390T364 373T333 377Q335 387 335 403Q335 453 285 453Q252 453 220 420T175 319V62Q175 33 200 23Q179 -9 148 -9Q92 -9 92 61V445Q92 474 67 485Q86 517 119 517Q175 517 175 447Z"/><glyph unicode="s" glyph-name="s" horiz-adv-x="502" d="M406 366T383 366T344 378Q350 388 350 407T327 444T258 462T185 442T158 393T188 343T260 302T344 262T417 209T447 136Q447 77 391 34T249 -9T109 24T55 109Q55 140 72 157T114 175T153 158Q139 139 139 112T166 66T246 46T330 68T362 123T333 180T261 221T177 258T105 308T75 376Q75 436 127 476T254 517T384 490T438 417Q439 393 423 380Z"/><glyph unicode="t" glyph-name="t" horiz-adv-x="398" d="M176 444V127Q176 90 190 74T238 58Q300 58 355 111Q372 102 372 82Q372 48 328 20T220 -9Q92 -9 92 124V444Q11 447 11 483Q11 502 23 512Q58 507 77 507H92V588Q92 616 67 628Q87 659 119 659Q176 659 176 589V507H344Q348 500 348 490Q348 444 190 444H176Z"/><glyph unicode="u" glyph-name="u" horiz-adv-x="594" d="M506 447V62Q506 34 532 23Q511 -9 479 -9Q424 -9 424 61V87Q368 -9 261 -9Q92 -9 92 163V445Q92 474 67 485Q86 517 119 517Q175 517 175 447V168Q175 62 279 62Q327 62 365 91T424 172V445Q424 474 398 485Q421 517 451 517Q506 517 506 447Z"/><glyph unicode="v" glyph-name="v" horiz-adv-x="510" d="M400 418Q409 442 409 463T395 499Q418 517 439 517T475 503T489 468T477 418L334 62Q319 23 303 8T259 -8T213 8T183 62L56 433Q43 468 15 470Q16 491 32 504T69 517Q119 517 140 449L260 50L400 418Z"/><glyph unicode="w" glyph-name="w" horiz-adv-x="757" d="M657 429Q662 450 662 470T649 504Q670 517 696 517T733 491Q738 479 738 461T732 420L635 62Q624 24 607 8T561 -9Q504 -9 485 62L393 408L305 62Q288 -9 229 -9T153 62L56 431Q46 469 15 470Q16 491 32 504T71 517Q122 517 140 447L231 55L334 454Q343 488 359 502T401 517T443 503T467 454L566 48L657 429Z"/><glyph unicode="x" glyph-name="x" horiz-adv-x="500" d="M475 28Q457 -9 418 -9T340 45L242 185L144 45Q110 -9 73 -9Q54 -9 40 3T24 37Q51 43 74 75L201 245L83 413Q47 465 24 472Q26 492 40 504T74 517Q111 517 145 468L254 310L368 470Q401 517 434 517Q453 517 468 505T484 472Q452 461 432 432L297 249L414 79Q434 48 475 28Z"/><glyph unicode="y" glyph-name="y" horiz-adv-x="535" d="M428 430Q435 449 435 468T421 502Q443 517 470 517T514 490Q522 476 522 459T513 419L305 -123Q256 -248 171 -248Q139 -248 121 -232T103 -192T119 -152Q137 -171 163 -171T204 -157T233 -107L269 -9Q268 -9 266 -9Q246 -9 229 4T204 43L66 443Q56 480 35 490Q52 517 88 517Q131 517 150 452L287 41L428 430Z"/><glyph unicode="z" glyph-name="z" horiz-adv-x="507" d="M456 51Q456 0 333 0H132Q100 0 82 16T64 59T96 121L382 449Q257 434 187 434Q65 434 65 488Q65 507 81 521Q120 507 182 507H389Q420 507 438 491T456 448T423 386L141 60L339 67Q405 68 438 94Q456 77 456 51Z"/><glyph unicode="{" glyph-name="braceleft" horiz-adv-x="384" d="M200 711Q200 682 209 582T218 454T210 402T189 366T164 342Q144 326 131 322Q218 279 218 194Q218 162 209 57T200 -79Q200 -136 231 -169T312 -209Q292 -234 247 -234T161 -188T119 -50Q119 -19 127 66T136 188T126 250T102 286Q68 312 68 321T78 339T102 358T125 393T136 455T128 572T119 682Q119 774 160 820T253 867Q290 867 312 842Q263 837 232 803T200 711Z"/><glyph unicode="|" glyph-name="bar" horiz-adv-x="279" d="M180 823V-102Q180 -130 204 -141Q184 -172 151 -172Q96 -172 96 -102V822Q96 850 71 861Q88 892 123 892Q180 892 180 823Z"/><glyph unicode="}" glyph-name="braceright" horiz-adv-x="384" d="M260 682Q260 654 252 573T243 455T254 394T277 358T301 339T312 323T301 306T278 286T254 251T243 189T251 67T260 -50Q260 -141 219 -187T133 -234T68 -209Q117 -203 148 -170T179 -79Q179 -48 171 57T162 193T173 251T204 292Q227 311 249 322Q222 331 191 366Q162 398 162 451Q162 482 170 582T179 711Q179 769 148 803T68 842Q90 867 126 867Q177 867 218 821T260 682Z"/><glyph unicode="~" glyph-name="asciitilde" horiz-adv-x="687" d="M466 410Q526 410 531 464Q556 453 556 420T529 362T461 338T321 366T194 394Q134 394 129 340Q104 347 104 382T131 442T200 466T342 438T466 410Z"/><glyph unicode="" glyph-name="nbsp" horiz-adv-x="272"/><glyph unicode="&#xA1;" glyph-name="exclamdown" horiz-adv-x="328" d="M208 -162Q209 -169 209 -188T196 -227T160 -248T124 -228T112 -173Q112 -168 112 -162L126 280Q130 346 168 346Q185 346 196 332Q187 309 187 281T188 237L208 -162ZM134 424T120 438T106 476T127 521T172 542T210 528T224 489T203 444T158 424Z"/><glyph unicode="&#xA2;" glyph-name="cent" horiz-adv-x="491" d="M313 580V517Q373 516 408 489T444 421Q444 397 430 383T396 369T363 377Q366 388 366 399Q366 460 291 460Q230 460 182 404T134 253T178 109T288 61Q371 61 426 114Q439 103 439 85Q439 55 396 26T294 -8V-72Q294 -99 319 -110Q299 -142 267 -142Q210 -142 210 -72V0Q140 20 95 80T50 236T100 406T231 505V579Q231 609 205 618Q226 650 258 650Q313 650 313 580Z"/><glyph unicode="&#xA3;" glyph-name="sterling" horiz-adv-x="605" d="M111 398H194Q189 476 189 513Q189 608 248 666T376 725T483 692T523 616Q523 565 469 555Q460 599 434 633T364 667T298 633T275 545T279 398H461Q464 393 464 383Q464 335 395 335H282V294Q282 243 270 183T224 101Q259 98 346 82T487 65T583 102Q591 92 591 75Q591 43 560 17T475 -9T319 8T163 26T67 -8Q59 3 59 24T81 69T145 99Q161 112 170 125T188 174T197 266T195 335H47Q43 347 43 352Q43 398 111 398Z"/><glyph unicode="&#xA4;" glyph-name="currency" horiz-adv-x="631" d="M269 223T327 223T415 257T445 354Q445 366 444 378Q437 457 400 494T305 531T218 497T188 402Q188 305 228 264ZM488 489Q515 441 515 373T482 256L561 179Q557 165 542 160Q530 150 512 150T466 177L434 207Q385 173 317 173T196 208L165 177Q136 151 118 151T88 160Q74 165 70 179L149 256Q114 305 114 374T142 490L70 562Q76 577 88 583Q100 593 118 593T165 564L188 541Q241 581 316 581T443 541L465 564Q493 593 511 593T542 583Q553 578 561 562L488 489Z"/><glyph unicode="&#xA5;" glyph-name="yen" horiz-adv-x="615" d="M467 646Q483 668 483 684T471 713Q492 725 519 725T558 713T571 681T555 634L385 385H531Q534 373 534 369Q534 323 460 323H343L341 320V244H531Q534 235 534 229Q534 182 460 182H340V60Q340 28 358 8Q337 -8 311 -8Q257 -8 257 66V182H70Q67 191 67 198Q67 244 141 244H258V317L255 323H70Q67 329 67 338Q67 385 141 385H219L75 638Q51 675 15 676Q30 725 75 725T150 673L306 395L467 646Z"/><glyph unicode="&#xA6;" glyph-name="brokenbar" horiz-adv-x="279" d="M181 248V-6Q181 -35 206 -45Q184 -76 154 -76Q98 -76 98 -6V247Q98 276 73 286Q93 317 125 317Q181 317 181 248ZM181 770V517Q181 488 206 478Q185 446 154 446Q98 446 98 516V769Q98 798 73 808Q93 840 125 840Q181 840 181 770Z"/><glyph unicode="&#xA7;" glyph-name="section" horiz-adv-x="644" d="M186 225T186 186T213 115T282 61T371 16T461 -31T529 -91T557 -174Q557 -263 487 -322T319 -382T156 -334T91 -210Q91 -179 108 -160T153 -140T196 -162Q176 -188 176 -215Q176 -259 213 -288T317 -318T432 -281T481 -190Q481 -150 443 -118T350 -62T241 -9T148 64T109 169T141 265T217 302Q241 302 261 291Q226 280 206 253ZM534 584Q534 556 521 541T486 525T448 533Q452 548 452 563Q452 600 417 631T320 663T222 635T186 558T224 475T317 413T426 359T519 287T557 190T522 95T442 54Q413 54 390 66Q431 76 456 108T481 180T443 254T350 311T241 363T148 435T109 539Q109 620 174 672T329 725T476 684T534 584Z"/><glyph unicode="&#xA8;" glyph-name="dieresis" horiz-adv-x="283" d="M94 700T106 687T119 652T100 611T60 592T25 605T12 640T31 681T72 700ZM246 700T258 687T271 652T252 611T211 592T177 605T164 640T183 681T224 700Z"/><glyph unicode="&#xA9;" glyph-name="copyright" horiz-adv-x="869" d="M518 467L520 481Q520 510 500 529T442 549Q379 549 343 494T306 356T346 228T449 183Q527 183 577 249Q591 245 591 224Q591 192 544 158T431 123Q345 123 288 185T231 348T295 526T455 603Q514 603 553 575T593 505Q593 485 580 473T550 461T518 467ZM295 681T211 587T126 357T210 128T434 35T658 127T743 356T659 587T435 681ZM590 725T693 620T797 356T694 94T435 -9T175 93T72 355T175 620T434 725Z"/><glyph unicode="&#xAA;" glyph-name="ordfeminine" horiz-adv-x="527" d="M144 128Q144 56 222 56T352 125V244Q246 238 195 207T144 128ZM435 356V90Q435 37 484 30Q465 -9 421 -9Q358 -9 352 72Q294 -9 196 -9Q134 -9 94 25T54 119Q54 193 128 238T352 288V348Q352 410 330 439T261 469T189 450T165 406T179 366Q158 350 133 350T91 364T75 404Q75 451 129 484T262 517T388 475T435 356Z"/><glyph unicode="&#xAB;" glyph-name="guillemotleft" horiz-adv-x="613" d="M243 558T213 506T182 405T213 303T311 175Q302 154 282 154T212 200T120 308T78 404T120 501T211 609T281 656T311 635Q243 558 213 506ZM467 558T437 506T406 405T437 303T535 175Q526 154 506 154T436 200T344 308T302 404T344 501T436 609T506 656T535 635Q467 558 437 506Z"/><glyph unicode="&#xAC;" glyph-name="logicalnot" horiz-adv-x="737" d="M649 408V298Q649 270 674 259Q655 228 622 228Q566 228 566 297V387Q566 407 543 407H63Q58 417 58 425Q58 469 130 469H583Q619 469 634 455T649 408Z"/><glyph unicode="&#xAE;" glyph-name="registered" horiz-adv-x="674" d="M287 683V559H330Q406 559 406 620Q406 683 330 683H287ZM474 400Q464 377 437 377T386 409L308 520H286V411Q286 395 299 391Q287 377 266 377Q235 377 235 410V686Q235 698 224 704Q235 721 261 721H332Q391 721 426 694T462 625T437 557T367 523L445 418Q457 402 474 400ZM110 444T172 376T336 307T501 375T564 544T503 713T338 781T173 713T110 544ZM70 664T145 739T336 815T527 740T603 544T528 349T337 273T146 348T70 544Z"/><glyph unicode="&#xAF;" glyph-name="overscore" horiz-adv-x="358" d="M64 660H341Q346 655 346 641T332 616T294 606H17Q12 613 12 626T26 650T64 660Z"/><glyph unicode="&#xB0;" glyph-name="degree" horiz-adv-x="487" d="M62 753T105 794T214 835T320 795T362 692T320 587T212 545T105 585T62 689ZM174 598T213 598T276 624T301 690T276 756T212 782T148 757T123 692T148 625Z"/><glyph unicode="&#xB1;" glyph-name="plusminus" horiz-adv-x="715" d="M90 453Q90 504 164 504Q229 500 326 500Q324 574 322 617Q322 689 373 689Q384 689 392 685L389 500L621 504Q625 494 625 485Q625 434 551 434Q461 436 389 437Q390 377 392 305Q392 231 340 231Q331 231 323 235L327 437L95 434Q90 439 90 453ZM165 162H623Q627 155 627 145Q627 92 552 92H95Q90 105 90 111Q90 162 165 162Z"/><glyph unicode="&#xB2;" glyph-name="twosuperior" horiz-adv-x="376" d="M259 307H83Q61 307 49 318T37 337T38 348Q154 441 203 500T252 613Q252 650 232 669T178 688T125 674T105 636T127 599Q113 583 90 583T52 597T37 633Q37 671 77 700T178 729T279 696T320 606T271 495T108 353Q173 360 258 360T343 323Q343 309 329 299Q306 307 259 307Z"/><glyph unicode="&#xB3;" glyph-name="threesuperior" horiz-adv-x="393" d="M258 725T291 702T325 643T293 581T212 542Q271 537 309 505T348 423T300 340T193 306T90 328T46 380T77 416Q110 353 204 353Q236 353 257 370T279 417Q279 462 246 485T158 509Q143 509 117 503Q109 508 109 519T132 542T184 563T235 588T259 627T238 663T181 676T96 647Q90 647 86 653T81 667Q81 684 121 704T209 725Z"/><glyph unicode="&#xB4;" glyph-name="acute" horiz-adv-x="247" d="M236 585Q230 568 215 568T181 581L77 664Q58 678 43 678T17 673Q12 687 12 700T19 724Q33 749 66 749T136 704L236 585Z"/><glyph unicode="&#xB5;" glyph-name="uni00B5" horiz-adv-x="598" d="M506 447V62Q506 34 532 23Q511 -9 479 -9Q424 -9 424 61V87Q368 -9 263 -9Q210 -9 175 17V-101Q175 -129 200 -141Q179 -173 148 -173Q92 -173 92 -103V445Q92 474 67 485Q86 517 119 517Q175 517 175 447V168Q175 62 279 62Q327 62 365 91T424 172V445Q424 474 398 485Q421 517 451 517Q506 517 506 447Z"/><glyph unicode="&#xB6;" glyph-name="paragraph" horiz-adv-x="657" d="M253 717H516Q508 676 508 618V0Q498 -3 485 -3Q438 -3 438 51V591Q438 627 442 650H386Q366 650 358 641T349 612V0Q338 -3 326 -3Q279 -3 279 51V276H253Q163 276 111 337T58 497T110 656T253 717Z"/><glyph unicode="&#xB7;" glyph-name="middot" horiz-adv-x="427" d="M248 463T263 448T278 406T255 357T206 334T164 349T149 391T172 440T221 463Z"/><glyph unicode="&#xB8;" glyph-name="cedilla" horiz-adv-x="326" d="M202 -68Q249 -68 280 -88T312 -148T271 -218T165 -248T58 -223T16 -169Q16 -154 29 -143Q76 -195 154 -195T232 -146Q232 -107 169 -107H150Q126 -107 126 -88Q126 -80 130 -69L165 28H224L190 -68H202Z"/><glyph unicode="&#xB9;" glyph-name="onesuperior" horiz-adv-x="181" d="M150 674V341Q150 322 165 318Q151 300 131 300Q96 300 96 340V665Q96 684 74 684T22 670Q14 670 14 682T39 710T93 725T135 711T150 674Z"/><glyph unicode="&#xBA;" glyph-name="ordmasculine" horiz-adv-x="402" d="M233 683T193 683T133 658T112 590Q112 522 141 493T209 464T270 488T291 557Q291 623 262 653ZM46 645T91 685T201 725T310 686T355 574T311 462T202 422T92 461T46 573Z"/><glyph unicode="&#xBB;" glyph-name="guillemotright" horiz-adv-x="613" d="M451 563T493 502T535 405T493 308T402 201T331 154Q321 154 313 161T302 175Q369 249 399 302T430 404T400 506T302 635Q304 641 312 648T331 656Q352 656 401 610ZM226 563T268 502T311 405T269 308T177 201T106 154Q96 154 88 161T78 175Q145 249 175 302T206 404T176 506T78 635Q80 641 88 648T106 656Q127 656 176 610Z"/><glyph unicode="&#xBC;" glyph-name="onequarter" horiz-adv-x="663" d="M112 337V661Q112 683 88 683Q71 683 46 667Q36 670 36 682T58 709T112 725Q168 725 168 672V337Q168 321 186 315Q173 296 151 296Q112 296 112 337ZM480 697Q498 725 515 725T542 708Q537 705 523 681L141 21Q124 -8 107 -8T79 8Q83 12 98 37L480 697ZM396 138H516V344Q516 354 509 354Q490 354 435 272T379 152Q379 138 396 138ZM574 138H590Q620 138 632 149Q642 139 642 127T630 106T596 97H574V37Q574 21 592 13Q576 -5 555 -5Q516 -5 516 36V97H382Q326 97 326 138T365 248T455 372T538 427Q574 427 574 391V138Z"/><glyph unicode="&#xBD;" glyph-name="onehalf" horiz-adv-x="727" d="M106 337V661Q106 683 82 683Q64 683 38 667Q29 671 29 682T52 709T104 725T148 711T163 672V337Q163 321 180 315Q167 296 145 296Q106 296 106 337ZM464 697Q482 725 498 725T526 708Q524 707 506 681L124 21Q107 -8 90 -8T62 8Q66 12 81 37L464 697ZM602 0H427Q405 0 392 12T381 41Q497 133 546 192T595 305Q595 342 575 362T522 383T468 368T448 330T470 291Q454 275 432 275T395 288T380 324Q380 363 420 392T522 422T623 388T663 298T612 184T446 45Q539 53 599 53Q687 53 687 15Q687 1 673 -8Q637 0 602 0Z"/><glyph unicode="&#xBE;" glyph-name="threequarters" horiz-adv-x="757" d="M271 537T309 505T348 423T300 340T193 306T90 328T46 380T77 416Q112 350 204 350Q236 350 257 368T279 424T246 485T158 509Q143 509 117 503Q109 508 109 516Q109 533 184 557Q212 566 235 584T259 626T238 664T180 678T96 649Q81 652 81 668T121 704T209 725T291 702T325 643T293 581T212 542Q271 537 309 505ZM594 697Q614 725 630 725T658 708Q651 705 637 681L243 21Q225 -8 208 -8T179 9Q186 14 201 37L594 697ZM491 138H611V344Q611 354 604 354Q585 354 529 273T473 152Q473 138 491 138ZM669 138H685Q715 138 727 149Q736 141 736 128T724 106T691 97H669V37Q669 21 686 13Q673 -5 650 -5Q611 -5 611 36V97H477Q421 97 421 139Q421 175 460 244T551 370T632 427Q669 427 669 391V138Z"/><glyph unicode="&#xBF;" glyph-name="questiondown" horiz-adv-x="501" d="M217 121T236 148T255 203T242 246T203 263Q204 284 219 297T261 310T313 286T338 224T320 155T275 97T223 45Q160 -18 160 -89Q160 -133 189 -167T264 -201T335 -179T359 -122Q359 -52 294 -25Q296 -14 313 -5T349 4Q390 4 415 -24T440 -101Q440 -163 387 -205T254 -248T123 -204T72 -96Q72 -51 91 -13T136 50T190 98ZM219 401T205 415T190 454T212 500T260 522T299 507T314 468T292 423T244 401Z"/><glyph unicode="&#xC0;" glyph-name="Agrave" horiz-adv-x="639" d="M300 793L386 923Q419 975 457 975Q485 975 497 958T510 927T508 904Q500 906 491 906Q469 906 449 888L353 795Q335 778 321 778T300 793ZM200 230H441L329 581L200 230ZM621 17Q605 -9 575 -9T529 4T503 51L462 169H177L135 60Q109 -9 69 -9Q35 -9 22 25Q45 34 58 72L293 665Q282 692 268 705Q291 725 315 725T353 710T379 662L583 68Q597 27 621 17Z"/><glyph unicode="&#xC1;" glyph-name="Aacute" horiz-adv-x="639" d="M391 795Q385 778 370 778T336 791L232 874Q213 888 198 888T172 883Q167 897 167 910T174 934Q188 959 221 959T291 914L391 795ZM200 230H441L329 581L200 230ZM597 27T621 17Q605 -9 575 -9T529 4T503 51L462 169H177L135 60Q109 -9 69 -9Q35 -9 22 25Q45 34 58 72L293 665Q282 692 268 705Q291 725 315 725T353 710T379 662L583 68Q597 27 621 17Z"/><glyph unicode="&#xC2;" glyph-name="Acircumflex" horiz-adv-x="639" d="M250 795Q233 778 215 778T193 793L260 896Q276 922 291 934T329 946T367 934T399 896L465 793Q461 778 443 778T408 795L329 875L250 795ZM200 230H441L329 581L200 230ZM621 17Q605 -9 575 -9T529 4T503 51L462 169H177L135 60Q109 -9 69 -9Q35 -9 22 25Q45 34 58 72L293 665Q282 692 268 705Q291 725 315 725T353 710T379 662L583 68Q597 27 621 17Z"/><glyph unicode="&#xC3;" glyph-name="Atilde" horiz-adv-x="639" d="M213 798Q186 804 186 838T212 896T274 920T352 894T414 867T449 881T466 921Q492 912 492 880T465 823T404 798T328 825T265 852T229 838T213 798ZM200 230H441L329 581L200 230ZM621 17Q605 -9 575 -9T529 4T503 51L462 169H177L135 60Q109 -9 69 -9Q35 -9 22 25Q45 34 58 72L293 665Q282 692 268 705Q291 725 315 725T353 710T379 662L583 68Q597 27 621 17Z"/><glyph unicode="&#xC4;" glyph-name="Adieresis" horiz-adv-x="639" d="M460 840T441 821T400 802T366 815T353 850T372 891T413 910T447 897T460 862ZM308 840T289 821T249 802T214 815T201 850T220 891T261 910T295 897T308 862ZM200 230H441L329 581L200 230ZM621 17Q605 -9 575 -9T529 4T503 51L462 169H177L135 60Q109 -9 69 -9Q35 -9 22 25Q45 34 58 72L293 665Q282 692 268 705Q291 725 315 725T353 710T379 662L583 68Q597 27 621 17Z"/><glyph unicode="&#xC5;" glyph-name="Aring" horiz-adv-x="639" d="M344 918T326 918T299 906T289 881T290 862Q291 833 303 819T333 804Q372 804 372 847Q372 854 371 862Q370 889 357 903ZM434 819T404 796T331 772T257 795T227 861T257 926T330 949T404 926T434 861ZM200 230H441L329 581L200 230ZM621 17Q605 -9 575 -9T529 4T503 51L462 169H177L135 60Q109 -9 69 -9Q35 -9 22 25Q45 34 58 72L293 665Q282 692 268 705Q291 725 315 725T353 710T379 662L583 68Q597 27 621 17Z"/><glyph unicode="&#xC6;" glyph-name="AE" horiz-adv-x="958" d="M426 238V638L229 238H426ZM579 67H784Q840 67 868 109Q898 97 898 66Q898 0 787 0H576Q499 0 463 30T426 128V170H195L134 46Q120 18 107 7T76 -5Q38 -5 19 29Q46 36 65 75L362 663Q388 717 445 717H797Q898 717 898 665Q898 634 868 624Q840 649 784 649H510V405H721Q776 405 799 396T823 362T798 323Q773 337 714 337H510V131Q510 96 526 82T579 67Z"/><glyph unicode="&#xC7;" glyph-name="Ccedilla" horiz-adv-x="677" d="M65 341Q65 515 162 620T403 725Q489 725 547 690T605 605Q605 580 589 566T550 552T513 559Q514 566 514 572Q514 606 483 633T386 660Q294 660 226 582T157 361T219 144T392 68Q451 68 502 92T586 149Q593 148 599 140T606 117Q606 80 538 36T375 -9L354 -68H366Q413 -68 444 -88T476 -148T435 -218T329 -248T222 -223T180 -169Q180 -154 193 -143Q240 -195 318 -195T396 -146Q396 -107 333 -107H314Q290 -107 290 -88Q290 -80 294 -69L317 -5Q204 14 135 107T65 341Z"/><glyph unicode="&#xC8;" glyph-name="Egrave" horiz-adv-x="640" d="M292 793L378 923Q411 975 449 975Q477 975 489 958T502 927T500 904Q492 906 483 906Q461 906 441 888L345 795Q327 778 313 778T292 793ZM264 67H466Q523 67 551 109Q564 104 572 92T580 66Q580 0 470 0H260Q183 0 146 31T109 132V641Q109 671 84 681Q108 717 164 717H480Q580 717 580 665Q580 634 551 624Q523 649 466 649H193V405H404Q459 405 482 396T505 361T481 323Q454 337 396 337H193V135Q193 99 209 83T264 67Z"/><glyph unicode="&#xC9;" glyph-name="Eacute" horiz-adv-x="640" d="M383 795Q377 778 362 778T328 791L224 874Q205 888 190 888T164 883Q159 897 159 910T166 934Q180 959 213 959T283 914L383 795ZM264 67H466Q523 67 551 109Q564 104 572 92T580 66Q580 0 470 0H260Q183 0 146 31T109 132V641Q109 671 84 681Q108 717 164 717H480Q580 717 580 665Q580 634 551 624Q523 649 466 649H193V405H404Q459 405 482 396T505 361T481 323Q454 337 396 337H193V135Q193 99 209 83T264 67Z"/><glyph unicode="&#xCA;" glyph-name="Ecircumflex" horiz-adv-x="640" d="M243 795Q226 778 208 778T186 793L253 896Q269 922 284 934T322 946T360 934T392 896L458 793Q454 778 436 778T401 795L322 875L243 795ZM264 67H466Q523 67 551 109Q564 104 572 92T580 66Q580 0 470 0H260Q183 0 146 31T109 132V641Q109 671 84 681Q108 717 164 717H480Q580 717 580 665Q580 634 551 624Q523 649 466 649H193V405H404Q459 405 482 396T505 361T481 323Q454 337 396 337H193V135Q193 99 209 83T264 67Z"/><glyph unicode="&#xCB;" glyph-name="Edieresis" horiz-adv-x="640" d="M453 840T434 821T393 802T359 815T346 850T365 891T406 910T440 897T453 862ZM301 840T282 821T242 802T207 815T194 850T213 891T254 910T288 897T301 862ZM264 67H466Q523 67 551 109Q564 104 572 92T580 66Q580 0 470 0H260Q183 0 146 31T109 132V641Q109 671 84 681Q108 717 164 717H480Q580 717 580 665Q580 634 551 624Q523 649 466 649H193V405H404Q459 405 482 396T505 361T481 323Q454 337 396 337H193V135Q193 99 209 83T264 67Z"/><glyph unicode="&#xCC;" glyph-name="Igrave" horiz-adv-x="279" d="M266 975Q294 975 306 958T319 927T317 904Q309 906 300 906Q278 906 258 888L162 795Q144 778 131 778Q116 778 109 793L195 923Q228 975 266 975ZM180 656V62Q180 34 204 23Q184 -9 151 -9Q96 -9 96 61V655Q96 683 71 694Q89 725 123 725Q180 725 180 656Z"/><glyph unicode="&#xCD;" glyph-name="Iacute" horiz-adv-x="279" d="M200 795Q194 778 179 778T145 791L41 874Q22 888 7 888T-19 883Q-24 897 -24 910T-17 934Q-3 959 30 959T100 914L200 795ZM180 656V62Q180 34 204 23Q184 -9 151 -9Q96 -9 96 61V655Q96 683 71 694Q89 725 123 725Q180 725 180 656Z"/><glyph unicode="&#xCE;" glyph-name="Icircumflex" horiz-adv-x="279" d="M180 656V62Q180 34 204 23Q184 -9 151 -9Q96 -9 96 61V655Q96 683 71 694Q89 725 123 725Q180 725 180 656ZM274 793Q270 778 252 778T217 795L138 875L59 795Q42 778 24 778T2 793L69 896Q85 922 100 934T138 946T176 934T208 896L274 793Z"/><glyph unicode="&#xCF;" glyph-name="Idieresis" horiz-adv-x="279" d="M244 910T256 897T269 862T250 821T209 802T175 815T162 850T181 891T222 910ZM92 910T104 897T117 862T98 821T58 802T23 815T10 850T29 891T70 910ZM180 656V62Q180 34 204 23Q184 -9 151 -9Q96 -9 96 61V655Q96 683 71 694Q89 725 123 725Q180 725 180 656Z"/><glyph unicode="&#xD0;" glyph-name="Eth" horiz-adv-x="752" d="M304 53Q425 53 508 131T591 357T508 583T304 661Q241 661 184 645L183 392H390Q393 380 393 375Q393 329 319 329H182L181 116Q181 92 187 80Q201 53 304 53ZM98 392V634Q98 671 83 690Q184 725 304 725Q452 725 562 639Q616 596 648 524T681 358T649 193T562 77Q452 -9 304 -9Q183 -9 140 22T97 116V329H24Q20 335 20 344Q20 392 94 392H98Z"/><glyph unicode="&#xD1;" glyph-name="Ntilde" horiz-adv-x="768" d="M364 920T406 894T468 867T503 881T520 921Q546 912 546 880T519 823T458 798T382 825T319 852T283 838T267 798Q240 804 240 838T266 896T328 920ZM108 61V655Q108 684 83 694Q105 725 137 725T191 709T235 658L578 116V655Q578 683 553 694Q573 725 606 725Q662 725 662 656V62Q662 34 685 21Q666 -9 634 -9T578 11T524 75L191 591V62Q191 34 216 23Q196 -9 164 -9Q108 -9 108 61Z"/><glyph unicode="&#xD2;" glyph-name="Ograve" horiz-adv-x="768" d="M511 975Q539 975 551 958T564 927T562 904Q554 906 545 906Q523 906 503 888L407 795Q389 778 376 778Q361 778 354 793L440 923Q473 975 511 975ZM305 53T405 53T564 142Q614 216 614 328Q614 350 612 374Q602 514 533 589T364 665T204 575Q155 501 155 392Q155 218 237 128Q305 53 405 53ZM527 725T611 627T696 360T612 92T385 -9T158 91T72 358T157 625T385 725Z"/><glyph unicode="&#xD3;" glyph-name="Oacute" horiz-adv-x="768" d="M305 53T405 53T564 142Q614 216 614 328Q614 350 612 374Q602 514 533 589T364 665T204 575Q155 501 155 392Q155 218 237 128Q305 53 405 53ZM527 725T611 627T696 360T612 92T385 -9T158 91T72 358T157 625T385 725ZM445 795Q439 778 424 778T390 791L286 874Q267 888 252 888T226 883Q221 897 221 910T228 934Q242 959 275 959T345 914L445 795Z"/><glyph unicode="&#xD4;" glyph-name="Ocircumflex" horiz-adv-x="768" d="M306 795Q289 778 271 778T249 793L316 896Q332 922 347 934T385 946T423 934T455 896L521 793Q517 778 499 778T464 795L385 875L306 795ZM305 53T405 53T564 142Q614 216 614 328Q614 350 612 374Q602 514 533 589T364 665T204 575Q155 501 155 392Q155 218 237 128Q305 53 405 53ZM243 725T385 725T611 627T696 360T612 92T385 -9T158 91T72 358T157 625Z"/><glyph unicode="&#xD5;" glyph-name="Otilde" horiz-adv-x="768" d="M365 920T407 894T469 867T504 881T521 921Q547 912 547 880T520 823T459 798T383 825T320 852T284 838T268 798Q241 804 241 838T267 896T329 920ZM305 53T405 53T564 142Q614 216 614 328Q614 350 612 374Q602 514 533 589T364 665T204 575Q155 501 155 392Q155 218 237 128Q305 53 405 53ZM527 725T611 627T696 360T612 92T385 -9T158 91T72 358T157 625T385 725Z"/><glyph unicode="&#xD6;" glyph-name="Odieresis" horiz-adv-x="768" d="M305 53T405 53T564 142Q614 216 614 328Q614 350 612 374Q602 514 533 589T364 665T204 575Q155 501 155 392Q155 218 237 128Q305 53 405 53ZM527 725T611 627T696 360T612 92T385 -9T158 91T72 358T157 625T385 725ZM489 910T501 897T514 862T495 821T454 802T420 815T407 850T426 891T467 910ZM337 910T349 897T362 862T343 821T303 802T268 815T255 850T274 891T315 910Z"/><glyph unicode="&#xD7;" glyph-name="multiply" horiz-adv-x="643" d="M558 209Q543 179 516 179T470 193T424 238L314 358L182 205Q150 171 130 171T101 188L280 394L84 609Q104 641 138 641Q163 641 176 629T194 612T208 597T223 581L334 458L463 605Q495 641 514 641T545 625L368 421L558 209Z"/><glyph unicode="&#xD8;" glyph-name="Oslash" horiz-adv-x="773" d="M235 129Q302 53 403 53T564 142Q614 216 614 328Q614 452 569 537L235 129ZM539 583Q472 665 368 665T204 575Q155 501 155 392Q155 262 204 175L539 583ZM627 607Q696 510 696 351T612 92T385 -9Q263 -9 183 65L150 25Q119 -9 92 -9T58 20Q91 37 119 72L146 105Q72 204 72 364T157 625T377 725T592 647L628 691Q658 725 686 725T720 698Q689 682 658 645L627 607Z"/><glyph unicode="&#xD9;" glyph-name="Ugrave" horiz-adv-x="704" d="M497 975Q525 975 537 958T550 927T548 904Q540 906 531 906Q509 906 489 888L393 795Q375 778 362 778Q347 778 340 793L426 923Q459 975 497 975ZM101 257V655Q101 683 76 694Q98 725 128 725Q184 725 184 656V247Q184 156 227 110T365 63Q546 63 546 247V655Q546 683 520 694Q540 725 573 725Q628 725 628 656V257Q628 133 564 63T366 -8T167 63T101 257Z"/><glyph unicode="&#xDA;" glyph-name="Uacute" horiz-adv-x="704" d="M101 257V655Q101 683 76 694Q98 725 128 725Q184 725 184 656V247Q184 156 227 110T365 63Q546 63 546 247V655Q546 683 520 694Q540 725 573 725Q628 725 628 656V257Q628 133 564 63T366 -8T167 63T101 257ZM432 795Q426 778 411 778T377 791L273 874Q254 888 239 888T213 883Q208 897 208 910T215 934Q229 959 262 959T332 914L432 795Z"/><glyph unicode="&#xDB;" glyph-name="Ucircumflex" horiz-adv-x="704" d="M292 795Q275 778 257 778T235 793L302 896Q318 922 333 934T371 946T409 934T441 896L507 793Q503 778 485 778T450 795L371 875L292 795ZM546 247V655Q546 683 520 694Q540 725 573 725Q628 725 628 656V257Q628 133 564 63T366 -8T167 63T101 257V655Q101 683 76 694Q98 725 128 725Q184 725 184 656V247Q184 156 227 110T365 63Q546 63 546 247Z"/><glyph unicode="&#xDC;" glyph-name="Udieresis" horiz-adv-x="704" d="M101 257V655Q101 683 76 694Q98 725 128 725Q184 725 184 656V247Q184 156 227 110T365 63Q546 63 546 247V655Q546 683 520 694Q540 725 573 725Q628 725 628 656V257Q628 133 564 63T366 -8T167 63T101 257ZM476 910T488 897T501 862T482 821T441 802T407 815T394 850T413 891T454 910ZM324 910T336 897T349 862T330 821T290 802T255 815T242 850T261 891T302 910Z"/><glyph unicode="&#xDD;" glyph-name="Yacute" horiz-adv-x="596" d="M375 795Q369 778 354 778T320 791L216 874Q197 888 182 888T156 883Q151 897 151 910T158 934Q172 959 205 959T275 914L375 795ZM311 -8Q257 -8 257 66L258 317L75 638Q51 675 15 676Q30 725 75 725T150 673L306 395L467 646Q483 668 483 684T471 713Q492 725 519 725T558 713T571 681T555 634L341 320L340 60Q340 28 358 8Q337 -8 311 -8Z"/><glyph unicode="&#xDE;" glyph-name="Thorn" horiz-adv-x="628" d="M180 249Q254 224 327 224T448 267T495 381T448 495T330 538T180 513V249ZM180 656V571Q264 603 336 603Q440 603 512 542T585 381T513 221T336 160Q258 160 180 191V62Q180 34 204 23Q184 -9 151 -9Q96 -9 96 61V655Q96 683 71 694Q89 725 123 725Q180 725 180 656Z"/><glyph unicode="&#xDF;" glyph-name="germandbls" horiz-adv-x="564" d="M439 334T476 286T513 164T464 41T342 -9Q294 -9 270 9T245 52Q245 61 249 69Q274 51 319 51T395 82T426 162T402 245T322 321Q310 331 286 348T254 374Q239 386 239 392T255 412T290 444T326 494T342 569T314 644T248 675Q153 675 153 540V62Q153 33 178 23Q157 -9 125 -9Q69 -9 69 61V540Q69 628 119 675T248 723T379 678T431 565Q431 463 323 406L363 380Q439 334 476 286Z"/><glyph unicode="&#xE0;" glyph-name="agrave" horiz-adv-x="527" d="M229 583L315 713Q348 765 386 765Q414 765 426 748T439 717T437 694Q429 696 420 696Q398 696 378 678L282 585Q264 568 250 568T229 583ZM144 175T144 128Q144 56 222 56T352 125V244Q246 238 195 207ZM435 356V90Q435 37 484 30Q465 -9 421 -9Q358 -9 352 72Q294 -9 196 -9Q134 -9 94 25T54 119Q54 193 128 238T352 288V348Q352 410 330 439T261 469T189 450T165 406T179 366Q158 350 133 350T91 364T75 404Q75 451 129 484T262 517T388 475T435 356Z"/><glyph unicode="&#xE1;" glyph-name="aacute" horiz-adv-x="527" d="M320 585Q314 568 299 568T265 581L161 664Q142 678 127 678T101 673Q96 687 96 700T103 724Q117 749 150 749T220 704L320 585ZM144 128Q144 56 222 56T352 125V244Q246 238 195 207T144 128ZM435 356V90Q435 37 484 30Q465 -9 421 -9Q358 -9 352 72Q294 -9 196 -9Q134 -9 94 25T54 119Q54 193 128 238T352 288V348Q352 410 330 439T261 469T189 450T165 406T179 366Q158 350 133 350T91 364T75 404Q75 451 129 484T262 517T388 475T435 356Z"/><glyph unicode="&#xE2;" glyph-name="acircumflex" horiz-adv-x="527" d="M180 585Q163 568 145 568T123 583L190 686Q206 712 221 724T259 736T297 724T329 686L395 583Q391 568 373 568T338 585L259 665L180 585ZM144 128Q144 56 222 56T352 125V244Q246 238 195 207T144 128ZM435 356V90Q435 37 484 30Q465 -9 421 -9Q358 -9 352 72Q294 -9 196 -9Q134 -9 94 25T54 119Q54 193 128 238T352 288V348Q352 410 330 439T261 469T189 450T165 406T179 366Q158 350 133 350T91 364T75 404Q75 451 129 484T262 517T388 475T435 356Z"/><glyph unicode="&#xE3;" glyph-name="atilde" horiz-adv-x="527" d="M142 588Q115 594 115 628T141 686T203 710T281 684T343 657T378 671T395 711Q421 702 421 670T394 613T333 588T257 615T194 642T158 628T142 588ZM144 128Q144 56 222 56T352 125V244Q246 238 195 207T144 128ZM435 356V90Q435 37 484 30Q465 -9 421 -9Q358 -9 352 72Q294 -9 196 -9Q134 -9 94 25T54 119Q54 193 128 238T352 288V348Q352 410 330 439T261 469T189 450T165 406T179 366Q158 350 133 350T91 364T75 404Q75 451 129 484T262 517T388 475T435 356Z"/><glyph unicode="&#xE4;" glyph-name="adieresis" horiz-adv-x="527" d="M389 630T370 611T329 592T295 605T282 640T301 681T342 700T376 687T389 652ZM237 630T218 611T178 592T143 605T130 640T149 681T190 700T224 687T237 652ZM144 128Q144 56 222 56T352 125V244Q246 238 195 207T144 128ZM435 356V90Q435 37 484 30Q465 -9 421 -9Q358 -9 352 72Q294 -9 196 -9Q134 -9 94 25T54 119Q54 193 128 238T352 288V348Q352 410 330 439T261 469T189 450T165 406T179 366Q158 350 133 350T91 364T75 404Q75 451 129 484T262 517T388 475T435 356Z"/><glyph unicode="&#xE5;" glyph-name="aring" horiz-adv-x="527" d="M273 708T255 708T228 696T218 671T219 652Q220 623 232 609T262 594Q301 594 301 637Q301 644 300 652Q299 679 286 693ZM363 609T333 586T260 562T186 585T156 651T186 716T259 739T333 716T363 651ZM144 128Q144 56 222 56T352 125V244Q246 238 195 207T144 128ZM435 356V90Q435 37 484 30Q465 -9 421 -9Q358 -9 352 72Q294 -9 196 -9Q134 -9 94 25T54 119Q54 193 128 238T352 288V348Q352 410 330 439T261 469T189 450T165 406T179 366Q158 350 133 350T91 364T75 404Q75 451 129 484T262 517T388 475T435 356Z"/><glyph unicode="&#xE6;" glyph-name="ae" horiz-adv-x="791" d="M352 234V244Q246 238 195 207T144 128Q144 56 224 56T366 142Q352 184 352 234ZM647 310T657 320T668 365T643 429T572 459T489 416T442 294L626 308Q647 310 657 320ZM439 152T481 105T602 58T735 110Q749 102 749 83Q749 50 701 21T588 -9Q451 -9 387 95Q309 -9 206 -9Q138 -9 96 25T54 119Q54 193 128 238T352 288V348Q352 410 330 439T261 469T189 450T165 406T179 366Q158 350 133 350T91 364T75 404Q75 451 128 484T257 517Q380 517 417 428Q489 517 589 517Q663 517 709 466T756 350Q756 303 731 281T647 256L440 251Q439 152 481 105Z"/><glyph unicode="&#xE7;" glyph-name="ccedilla" horiz-adv-x="491" d="M50 231Q50 356 124 436T306 517Q369 517 406 489T444 421Q444 397 430 383T396 369T363 377Q366 388 366 399Q366 460 291 460Q230 460 182 404T134 253T178 109T288 61Q371 61 426 114Q439 103 439 85Q439 54 392 24T282 -9L261 -68H273Q320 -68 351 -88T383 -148T342 -218T236 -248T129 -223T87 -169Q87 -154 100 -143Q147 -195 225 -195T303 -146Q303 -107 240 -107H221Q196 -107 196 -88Q196 -80 201 -69L225 -4Q149 13 100 74T50 231Z"/><glyph unicode="&#xE8;" glyph-name="egrave" horiz-adv-x="489" d="M326 308Q367 311 367 355T342 429T270 459T186 415T139 293L326 308ZM137 152T179 105T301 58T432 110Q447 102 447 83Q447 50 399 21T285 -9Q182 -9 116 56T50 238T121 436T286 517Q360 517 406 466T453 350Q453 303 428 281T345 256L137 250Q137 152 179 105ZM406 765Q434 765 446 748T459 717T457 694Q449 696 440 696Q418 696 398 678L302 585Q284 568 271 568Q256 568 249 583L335 713Q368 765 406 765Z"/><glyph unicode="&#xE9;" glyph-name="eacute" horiz-adv-x="489" d="M340 585Q334 568 319 568T285 581L181 664Q162 678 147 678T121 673Q116 687 116 700T123 724Q137 749 170 749T240 704L340 585ZM326 308Q367 311 367 355T342 429T270 459T186 415T139 293L326 308ZM137 152T179 105T301 58T432 110Q447 102 447 83Q447 50 399 21T285 -9Q182 -9 116 56T50 238T121 436T286 517Q360 517 406 466T453 350Q453 303 428 281T345 256L137 250Q137 152 179 105Z"/><glyph unicode="&#xEA;" glyph-name="ecircumflex" horiz-adv-x="489" d="M200 585Q183 568 165 568T143 583L210 686Q226 712 241 724T279 736T317 724T349 686L415 583Q411 568 393 568T358 585L279 665L200 585ZM326 308Q367 311 367 355T342 429T270 459T186 415T139 293L326 308ZM137 152T179 105T301 58T432 110Q447 102 447 83Q447 50 399 21T285 -9Q182 -9 116 56T50 238T121 436T286 517Q360 517 406 466T453 350Q453 303 428 281T345 256L137 250Q137 152 179 105Z"/><glyph unicode="&#xEB;" glyph-name="edieresis" horiz-adv-x="489" d="M409 630T390 611T349 592T315 605T302 640T321 681T362 700T396 687T409 652ZM257 630T238 611T198 592T163 605T150 640T169 681T210 700T244 687T257 652ZM326 308Q367 311 367 355T342 429T270 459T186 415T139 293L326 308ZM137 152T179 105T301 58T432 110Q447 102 447 83Q447 50 399 21T285 -9Q182 -9 116 56T50 238T121 436T286 517Q360 517 406 466T453 350Q453 303 428 281T345 256L137 250Q137 152 179 105Z"/><glyph unicode="&#xEC;" glyph-name="igrave" horiz-adv-x="265" d="M260 765Q288 765 300 748T313 717T311 694Q303 696 294 696Q272 696 252 678L156 585Q138 568 125 568Q110 568 103 583L189 713Q222 765 260 765ZM175 447V62Q175 33 200 23Q179 -9 148 -9Q92 -9 92 61V445Q92 474 67 485Q86 517 119 517Q175 517 175 447Z"/><glyph unicode="&#xED;" glyph-name="iacute" horiz-adv-x="265" d="M175 447V62Q175 33 200 23Q179 -9 148 -9Q92 -9 92 61V445Q92 474 67 485Q86 517 119 517Q175 517 175 447ZM194 585Q188 568 173 568T139 581L35 664Q16 678 1 678T-25 673Q-30 687 -30 700T-23 724Q-9 749 24 749T94 704L194 585Z"/><glyph unicode="&#xEE;" glyph-name="icircumflex" horiz-adv-x="265" d="M175 447V62Q175 33 200 23Q179 -9 148 -9Q92 -9 92 61V445Q92 474 67 485Q86 517 119 517Q175 517 175 447ZM269 583Q265 568 247 568T212 585L133 665L54 585Q37 568 19 568T-3 583L64 686Q80 712 95 724T133 736T171 724T203 686L269 583Z"/><glyph unicode="&#xEF;" glyph-name="idieresis" horiz-adv-x="265" d="M175 447V62Q175 33 200 23Q179 -9 148 -9Q92 -9 92 61V445Q92 474 67 485Q86 517 119 517Q175 517 175 447ZM238 700T250 687T263 652T244 611T203 592T169 605T156 640T175 681T216 700ZM86 700T98 687T111 652T92 611T52 592T17 605T4 640T23 681T64 700Z"/><glyph unicode="&#xF0;" glyph-name="eth" horiz-adv-x="574" d="M234 47T302 47T404 93T439 222Q439 350 386 410Q342 460 274 460T172 415T137 289Q137 159 190 98Q234 47 302 47ZM450 541T487 444T524 269T503 136T447 52Q378 -9 284 -9T120 60T50 254T119 448T288 517Q350 517 398 480Q369 549 329 605L192 567Q184 572 184 587Q184 618 244 635L296 649Q257 697 203 741Q212 759 233 759Q284 759 360 667L489 703Q497 696 497 683Q497 651 422 631L393 623Q450 541 487 444Z"/><glyph unicode="&#xF1;" glyph-name="ntilde" horiz-adv-x="594" d="M181 588Q154 594 154 628T180 686T242 710T320 684T382 657T417 671T434 711Q460 702 460 670T433 613T372 588T296 615T233 642T197 628T181 588ZM506 345V62Q506 34 532 23Q511 -9 479 -9Q424 -9 424 61V339Q424 444 332 444Q282 444 237 404T175 297V62Q175 33 200 23Q179 -9 148 -9Q92 -9 92 61V445Q92 474 67 485Q86 517 119 517Q175 517 175 447V395Q201 449 249 483T361 517T466 474T506 345Z"/><glyph unicode="&#xF2;" glyph-name="ograve" horiz-adv-x="574" d="M413 765Q441 765 453 748T466 717T464 694Q456 696 447 696Q425 696 405 678L309 585Q291 568 278 568Q263 568 256 583L342 713Q375 765 413 765ZM349 460T280 460T173 413T135 273Q135 154 181 101T297 47T403 95T440 235Q440 355 395 407ZM189 517T288 517T456 448T526 254T457 60T288 -9T120 60T50 254T119 448Z"/><glyph unicode="&#xF3;" glyph-name="oacute" horiz-adv-x="574" d="M349 460T280 460T173 413T135 273Q135 154 181 101T297 47T403 95T440 235Q440 355 395 407ZM189 517T288 517T456 448T526 254T457 60T288 -9T120 60T50 254T119 448ZM347 585Q341 568 326 568T292 581L188 664Q169 678 154 678T128 673Q123 687 123 700T130 724Q144 749 177 749T247 704L347 585Z"/><glyph unicode="&#xF4;" glyph-name="ocircumflex" horiz-adv-x="574" d="M207 585Q190 568 172 568T150 583L217 686Q233 712 248 724T286 736T324 724T356 686L422 583Q418 568 400 568T365 585L286 665L207 585ZM228 47T297 47T403 95T440 235Q440 355 395 407T280 460T173 413T135 273Q135 154 181 101ZM189 517T288 517T456 448T526 254T457 60T288 -9T120 60T50 254T119 448Z"/><glyph unicode="&#xF5;" glyph-name="otilde" horiz-adv-x="574" d="M266 710T308 684T370 657T405 671T422 711Q448 702 448 670T421 613T360 588T284 615T221 642T185 628T169 588Q142 594 142 628T168 686T230 710ZM349 460T280 460T173 413T135 273Q135 154 181 101T297 47T403 95T440 235Q440 355 395 407ZM189 517T288 517T456 448T526 254T457 60T288 -9T120 60T50 254T119 448Z"/><glyph unicode="&#xF6;" glyph-name="odieresis" horiz-adv-x="574" d="M349 460T280 460T173 413T135 273Q135 154 181 101T297 47T403 95T440 235Q440 355 395 407ZM189 517T288 517T456 448T526 254T457 60T288 -9T120 60T50 254T119 448ZM391 700T403 687T416 652T397 611T356 592T322 605T309 640T328 681T369 700ZM239 700T251 687T264 652T245 611T205 592T170 605T157 640T176 681T217 700Z"/><glyph unicode="&#xF7;" glyph-name="divide" horiz-adv-x="597" d="M114 439H556Q559 434 559 423Q559 370 484 370H43Q38 380 38 388Q38 439 114 439ZM335 297T350 282T366 240T343 190T293 167T251 182T236 224T259 273T309 297ZM336 645T351 630T366 588T343 539T294 516T252 531T236 573T259 622T309 645Z"/><glyph unicode="&#xF8;" glyph-name="oslash" horiz-adv-x="590" d="M189 92Q231 47 298 47T403 95T440 235Q440 318 415 372L189 92ZM386 417Q344 460 278 460T173 413T135 273Q135 190 159 138L386 417ZM467 436Q526 364 526 247T457 60T288 -9Q207 -9 145 38L135 25Q106 -9 77 -9T44 19Q83 41 105 72L107 74Q50 146 50 262T119 448T288 517Q369 517 429 472L438 482Q469 517 496 517T530 489Q501 474 468 437L467 436Z"/><glyph unicode="&#xF9;" glyph-name="ugrave" horiz-adv-x="594" d="M267 583L353 713Q386 765 424 765Q452 765 464 748T477 717T475 694Q467 696 458 696Q436 696 416 678L320 585Q302 568 288 568T267 583ZM506 447V62Q506 34 532 23Q511 -9 479 -9Q424 -9 424 61V87Q368 -9 261 -9Q92 -9 92 163V445Q92 474 67 485Q86 517 119 517Q175 517 175 447V168Q175 62 279 62Q327 62 365 91T424 172V445Q424 474 398 485Q421 517 451 517Q506 517 506 447Z"/><glyph unicode="&#xFA;" glyph-name="uacute" horiz-adv-x="594" d="M358 585Q352 568 337 568T303 581L199 664Q180 678 165 678T139 673Q134 687 134 700T141 724Q155 749 188 749T258 704L358 585ZM506 447V62Q506 34 532 23Q511 -9 479 -9Q424 -9 424 61V87Q368 -9 261 -9Q92 -9 92 163V445Q92 474 67 485Q86 517 119 517Q175 517 175 447V168Q175 62 279 62Q327 62 365 91T424 172V445Q424 474 398 485Q421 517 451 517Q506 517 506 447Z"/><glyph unicode="&#xFB;" glyph-name="ucircumflex" horiz-adv-x="594" d="M218 585Q201 568 183 568T161 583L228 686Q244 712 259 724T297 736T335 724T367 686L433 583Q429 568 411 568T376 585L297 665L218 585ZM506 447V62Q506 34 532 23Q511 -9 479 -9Q424 -9 424 61V87Q368 -9 261 -9Q92 -9 92 163V445Q92 474 67 485Q86 517 119 517Q175 517 175 447V168Q175 62 279 62Q327 62 365 91T424 172V445Q424 474 398 485Q421 517 451 517Q506 517 506 447Z"/><glyph unicode="&#xFC;" glyph-name="udieresis" horiz-adv-x="594" d="M427 630T408 611T367 592T333 605T320 640T339 681T380 700T414 687T427 652ZM275 630T256 611T216 592T181 605T168 640T187 681T228 700T262 687T275 652ZM506 447V62Q506 34 532 23Q511 -9 479 -9Q424 -9 424 61V87Q368 -9 261 -9Q92 -9 92 163V445Q92 474 67 485Q86 517 119 517Q175 517 175 447V168Q175 62 279 62Q327 62 365 91T424 172V445Q424 474 398 485Q421 517 451 517Q506 517 506 447Z"/><glyph unicode="&#xFD;" glyph-name="yacute" horiz-adv-x="535" d="M346 585Q340 568 325 568T291 581L187 664Q168 678 153 678T127 673Q122 687 122 700T129 724Q143 749 176 749T246 704L346 585ZM428 430Q435 449 435 468T421 502Q443 517 470 517T514 490Q522 476 522 459T513 419L305 -123Q256 -248 171 -248Q139 -248 121 -232T103 -192T119 -152Q137 -171 163 -171T204 -157T233 -107L269 -9Q268 -9 266 -9Q246 -9 229 4T204 43L66 443Q56 480 35 490Q52 517 88 517Q131 517 150 452L287 41L428 430Z"/><glyph unicode="&#xFE;" glyph-name="thorn" horiz-adv-x="588" d="M305 59Q366 59 408 111T451 254T409 396T305 448Q219 448 175 366V128Q200 90 231 75T305 59ZM175 691V446Q227 517 317 517T472 449T537 255T470 61T315 -8T175 50V-176Q175 -206 200 -216Q179 -248 148 -248Q92 -248 92 -177V689Q92 718 67 729Q84 760 119 760Q175 760 175 691Z"/><glyph unicode="&#xFF;" glyph-name="ydieresis" horiz-adv-x="535" d="M416 630T397 611T356 592T322 605T309 640T328 681T369 700T403 687T416 652ZM264 630T245 611T205 592T170 605T157 640T176 681T217 700T251 687T264 652ZM428 430Q435 449 435 468T421 502Q443 517 470 517T514 490Q522 476 522 459T513 419L305 -123Q256 -248 171 -248Q139 -248 121 -232T103 -192T119 -152Q137 -171 163 -171T204 -157T233 -107L269 -9Q268 -9 266 -9Q246 -9 229 4T204 43L66 443Q56 480 35 490Q52 517 88 517Q131 517 150 452L287 41L428 430Z"/><glyph unicode="&#x2013;" glyph-name="endash" horiz-adv-x="655" d="M135 379H591Q595 371 595 362Q595 309 519 309H65Q60 319 60 327Q60 379 135 379Z"/><glyph unicode="&#x2014;" glyph-name="emdash" horiz-adv-x="1073" d="M135 379H1009Q1013 371 1013 362Q1013 309 937 309H65Q60 319 60 327Q60 379 135 379Z"/><glyph unicode="&#x2018;" glyph-name="quoteleft" horiz-adv-x="224" d="M115 765Q115 730 133 703T183 667Q181 645 164 629T122 612Q84 612 62 645T40 723Q40 793 73 844T144 895Q165 895 169 875Q115 838 115 765Z"/><glyph unicode="&#x2019;" glyph-name="quoteright" horiz-adv-x="224" d="M109 757Q109 792 91 819T40 854Q42 876 59 892T102 909Q140 909 161 876T183 799Q183 729 150 678T81 626Q59 626 56 646Q109 684 109 757Z"/><glyph unicode="&#x201A;" glyph-name="quotesinglbase" horiz-adv-x="720" d="M135 -32Q135 4 117 31T67 68Q69 91 86 108T129 125Q167 125 189 91T211 10Q211 -61 177 -114T105 -167Q83 -167 80 -145Q135 -106 135 -32Z"/><glyph unicode="&#x201C;" glyph-name="quotedblleft" horiz-adv-x="425" d="M147 765Q147 730 165 703T215 667Q213 645 196 629T153 612Q115 612 94 645T72 723Q72 793 105 844T176 895Q197 895 201 875Q147 838 147 765ZM284 765Q284 730 302 703T353 667Q351 645 333 629T291 612Q252 612 231 645T209 723Q209 792 242 843T313 895Q335 895 338 875Q284 838 284 765Z"/><glyph unicode="&#x201D;" glyph-name="quotedblright" horiz-adv-x="425" d="M109 743Q109 778 90 805T40 841Q42 863 59 879T102 895Q140 895 161 862T183 785Q183 715 150 664T81 612Q59 612 56 632Q109 670 109 743ZM310 743Q310 777 291 805T241 841Q243 863 260 879T303 895Q341 895 362 862T384 785Q384 715 351 664T281 612Q259 612 256 632Q310 671 310 743Z"/><glyph unicode="&#x201E;" glyph-name="quotedblbase" horiz-adv-x="720" d="M135 -32Q135 4 117 31T67 68Q69 91 86 108T129 125Q167 125 189 91T211 10Q211 -61 177 -114T105 -167Q83 -167 80 -145Q135 -106 135 -32Z"/><glyph unicode="&#x2022;" glyph-name="bullet" horiz-adv-x="377" d="M243 509T267 484T292 414T255 333T173 295T104 320T79 389T118 471T200 509Z"/><glyph unicode="&#x2039;" glyph-name="guilsinglleft" horiz-adv-x="389" d="M243 558T213 506T182 405T213 303T311 175Q302 154 282 154T212 200T120 308T78 404T120 501T211 609T281 656T311 635Q243 558 213 506Z"/><glyph unicode="&#x203A;" glyph-name="guilsinglright" horiz-adv-x="389" d="M226 563T268 502T311 405T269 308T177 201T106 154Q96 154 88 161T78 175Q145 249 175 302T206 404T176 506T78 635Q80 641 88 648T106 656Q127 656 176 610Z"/></font>
</defs>
</svg>
